Welcome Guest ( Log In | Register )

> Crotalus - The Twilight Of Tragedy [ep] (2019), Death Metal
post Nov 18 2020, 04:13:28
Post #1

Правь статус, ####!111
**************
Group: Металариец
Posts: 24,668
Releases: 17489
From: Г.Харьков
On Forums: 8 years 8 months
Thanks: 338392 time(s)
Unknown


(IMG:http://metalarea.org/images/audiocovers/2020_Nov/acov_tid344047_thumb.jpg)

*Artist: Crotalus
*Album: The Twilight Of Tragedy [ep]
*Year: 2019
*Genre: Death Metal
*Country: United States (IMG:http://metalarea.org/forum/style_images/flags/United%20States.png)
*Format: mp3@CBR320kbps
*Size: 56MB

Tracklist:
1. Ever War 04:27
2. Cesspool of Humanity 05:19
3. Purge 04:44
4. Infernal Orb 03:01
5. Faustian Perpetuation 05:40
******************************
Total playing time: 23:11




Extended info
E.J. Hennie Drums (2017-present)
See also: ex-Carnality, ex-ManBearPig, ex-Phallic Decapitant, ex-Contagion Leukorrhea, ex-Gorlock, Crotalus, ex-Despise the Sun, ex-Dwarfophile, ex-Duckling Fantasy, ex-Necromonica, ex-Apocalyptic Doom Blast, ex-Blooded
Mark Janzen Guitars (2017-present)
Bryan Kane Vocals (2017-present)
Chris Lyttle Bass (2019-present)
Devan Fechner Guitars (2019-present)


Technical info
(IMG:http://metalarea.org/images/spectrogram/2020_Nov/b70ce1a140a327d0142828cf31693c33.png)
Input File: 03 Purge.mp3
Channels : 2
Sample Rate : 44100
Precision : 16-bit
Duration : 00:04:44.88 = 12563252 samples = 21366.1 CDDA sectors
File Size : 11.9M
Bit Rate : 335k
Sample Encoding: MPEG audio (layer I, II or III)
Comments :
Title=Purge
Artist=Crotalus
Album=The Twilight of Tragedy
Tracknumber=3/5
Year=2019-19-20
Genre=Metal
Discnumber=1/1



Register


Go to the top of the page
  Insert nick Quick quote
+Quote Post
 
Start new topic
Replies (1 - 1)
post Nov 24 2020, 09:14:28
Post #2

Восемь Литров
********
Group: Металариец
Posts: 837
Releases: 1
From: APATIN, SERBIA, АПАТИН, СЕРБИЯ
On Forums: 13 years 3 months
Thanks: 1683 time(s)



Flac

Register


Thanks:
(1) Olethros,
Go to the top of the page
  Insert nick Quick quote
+Quote Post

Reply to this topicStart new topic
1 User(s) are reading this topic (1 Guests and 0 Anonymous Users)
0 Members:

 



- Lo-Fi Version Support form
Copyrights and abuse reports form
Time is now: 25th January 2021 - 11:14:39