Welcome Guest ( Log In | Register )

> 

Здесь релизы с живыми прямыми ссылками на lossless

> !t.O.O.H.! - Free Speech (2020), Avant-Garde/Progressive Death Metal/Grindcore
post Nov 18 2020, 05:31:49
Post #1

Правь статус, ####!111
**************
Group: Металариец
Posts: 23,980
Releases: 16852
From: Г.Харьков
On Forums: 8 years 6 months
Thanks: 321103 time(s)
Unknown


(IMG:http://metalarea.org/images/audiocovers/2020_Nov/acov_tid344048_thumb.jpg)

*Artist: !t.O.O.H.!
*Album: Free Speech
*Year: 2020
*Genre: Avant-Garde/Progressive Death Metal/Grindcore
*Country: Czech Republic (IMG:http://metalarea.org/forum/style_images/flags/Czech%20Republic.png)
*Format: mp3@CBR320kbps
*Size: 79MB

Tracklist:
1. Pět neděl ve srubu 01:52
2. Unést, prcat a čekat 01:55
3. Nácek radikál 03:38
4. Kratochvíle pana M 03:04
5. Proto moudří v ústraní 02:22
6. Tfuj, Jirko! 03:14
7. Roztřískám jim papule 03:00
8. Zrozen k božským cílům 02:44
9. Pak jí ruce svážu 03:16
10. Čarovné mlíčí 02:13
11. Poslední hon dcery doktora Hamky, majitele nejedné golfové jamky 03:06
12. Komouš 03:47
******************************
Total playing time: 34:11




Extended info
Schizoid Drums, Vocals (1993-2005, 2011-2013, 2017-present)
See also: ex-Devastator, ex-Gemini Gem, ex-§§
Humanoid Bass (1993-1996), Guitars, Vocals, Programming (1993-2005, 2011-2013, 2017-present)
See also: Jose Veselý, §§, ex-Devastator, ex-Gemini Gem


Technical info
(IMG:http://metalarea.org/images/spectrogram/2020_Nov/53cc2fc4b8022dab68274e6600ddeeb7.png)
Input File: 03. Nácek Radikál.mp3
Channels : 2
Sample Rate : 44100
Precision : 16-bit
Duration : 00:03:38.29 = 9626413 samples = 16371.5 CDDA sectors
File Size : 8.73M
Bit Rate : 320k
Sample Encoding: MPEG audio (layer I, II or III)
Comments :
Title=Nácek Radikál
Artist=!T.O.O.H.!
Album=Free Speech
Tracknumber=03
Year=2020
Genre=Avant-Garde Progressive Death



Register


Go to the top of the page
  Insert nick Quick quote
+Quote Post
 
Start new topic
Replies (1 - 8)
post Nov 19 2020, 00:59:15
Post #2

http://rateyourmusic.com/~Ghostb
**************
Group: Металариец
Posts: 2,443
Releases: 0
From: Харьков
On Forums: 11 years 2 months
Thanks: 1156 time(s)
Ukraine


Неужели полноформат? Не ждал, но это я очень удачно зашел)

М-да, последние 4 трека были на прошлогодней ипишке. Итого аж 22 минуты нового материала (IMG:style_emoticons/default/smile1.gif)
Go to the top of the page
  Insert nick Quick quote
+Quote Post
post Nov 19 2020, 17:03:16
Post #3

http://rateyourmusic.com/~Ghostb
**************
Group: Металариец
Posts: 2,443
Releases: 0
From: Харьков
On Forums: 11 years 2 months
Thanks: 1156 time(s)
Ukraine


Такой культовый проект - и ни одного коммента. М-да (IMG:style_emoticons/default/21.gif)
Go to the top of the page
  Insert nick Quick quote
+Quote Post
post Nov 21 2020, 20:52:09
Post #4

http://rateyourmusic.com/~Ghostb
**************
Group: Металариец
Posts: 2,443
Releases: 0
From: Харьков
On Forums: 11 years 2 months
Thanks: 1156 time(s)
Ukraine


Классный альбом, по традиции запредельно мелодичный в рамках жанра, эти гитарные соло (IMG:style_emoticons/default/20.gif) Ну а композиции вроде инструментальной "Zrozen k božským cílům" или "Komouš" с прошлогодней ипишки - просто шедевры.
Go to the top of the page
  Insert nick Quick quote
+Quote Post
post Nov 21 2020, 21:36:24
Post #5

Маньяк
**********
Group: Металариец
Posts: 1,265
Releases: 44
From: Moscow
On Forums: 14 years 4 months
Thanks: 1064 time(s)
Russian Federation


Ох ни фига! вот это подарок! люблю я их давно, единственный в мире Prog-Grind !!


Thanks:
(1) Ghostb,
Go to the top of the page
  Insert nick Quick quote
+Quote Post
post Nov 22 2020, 10:08:43
Post #6

Old School Metal
**************
Group: Металариец
Posts: 3,173
Releases: 0
From: г. Минск
On Forums: 11 years 8 months
Thanks: 7333 time(s)
Belarus




Lossless: FLAC (tracks)
Register
Go to the top of the page
  Insert nick Quick quote
+Quote Post
post Nov 22 2020, 12:48:54
Post #7

Zero Tolerance
*****
Group: Металариец
Posts: 409
Releases: 0
On Forums: 8 years 2 months
Thanks: 75 time(s)
Unknown


Плоско и не интересно.
Go to the top of the page
  Insert nick Quick quote
+Quote Post
post Nov 22 2020, 18:25:44
Post #8

http://rateyourmusic.com/~Ghostb
**************
Group: Металариец
Posts: 2,443
Releases: 0
From: Харьков
On Forums: 11 years 2 months
Thanks: 1156 time(s)
Ukraine


ЦИТАТА(Vitald @ Nov 22 2020, 13:48:54) *
Плоско и не интересно

А предыдущие работы нравились?
Go to the top of the page
  Insert nick Quick quote
+Quote Post
post Nov 23 2020, 09:40:28
Post #9

Zero Tolerance
*****
Group: Металариец
Posts: 409
Releases: 0
On Forums: 8 years 2 months
Thanks: 75 time(s)
Unknown


ЦИТАТА(Ghostb @ Nov 22 2020, 19:25:44) *
А предыдущие работы нравились?


Слушал не все. Что -то из прошлых вроде как понравилось на момент прослушивания.
Go to the top of the page
  Insert nick Quick quote
+Quote Post

Reply to this topicStart new topic
2 User(s) are reading this topic (2 Guests and 0 Anonymous Users)
0 Members:

 



- Lo-Fi Version Support form
Copyrights and abuse reports form
Time is now: 29th November 2020 - 00:33:11