Welcome Guest ( Log In | Register )

> И неформату есть предел.

Рэп/хип-хоп/шансон/поп удаляются. Для них есть свои порталы.

 
Reply to this topicStart new topic
> Mundus Senescit - A Face Without A Name Iii [ep] (2020), Dark Ambient/Noise/Industrial
post Nov 19 2020, 15:25:45
Post #1

Два Литра
**
Group: Завсегдатай
Posts: 125
Releases: 73
On Forums: 9 years 8 months
Thanks: 3109 time(s)
Unknown


(IMG:http://metalarea.org/images/audiocovers/2020_Nov/acov_tid344130_thumb.jpg)

*Artist: Mundus Senescit
*Album: A Face Without A Name Iii [ep]
*Year: 2020
*Genre: Dark Ambient/Noise/Industrial
*Country: Greece (IMG:http://metalarea.org/forum/style_images/flags/Greece.png)
*Format: mp3@CBR320kbps
*Size: 46MB

Tracklist:
1. Pasreality 05:42
2. Futurresent 05:47
3. Mental Chimera 06:38
******************************
Total playing time: 18:07



Technical info
(IMG:http://metalarea.org/images/spectrogram/2020_Nov/986dff7de892c2ebf3ff256ea77d4857.png)
Input File: Mundus Senescit - Futurresent.mp3
Channels : 2
Sample Rate : 44100
Precision : 16-bit
Duration : 00:05:47.12 = 15308036 samples = 26034.1 CDDA sectors
File Size : 13.9M
Bit Rate : 320k
Sample Encoding: MPEG audio (layer I, II or III)
Comments :
Title=Futurresent
Artist=Mundus Senescit
Year=2020



Register


Thanks:
Go to the top of the page
  Insert nick Quick quote
+Quote Post

Reply to this topicStart new topic
1 User(s) are reading this topic (1 Guests and 0 Anonymous Users)
0 Members:

 



- Lo-Fi Version Support form
Copyrights and abuse reports form
Time is now: 25th November 2020 - 09:22:08