Welcome Guest ( Log In | Register )

> Поезд Родина - Прими Раба Твоего (2020), Funeral Doom Metal
post Nov 19 2020, 16:44:12
Post #1

...
**************
Group: Металариец
Posts: 3,557
Releases: 1490
From: МЕЩЁРА
On Forums: 13 years 2 weeks
Thanks: 43419 time(s)
Russian Federation


(IMG:https://metalarea.org/images/audiocovers/2020_Nov/acov_tid344137_thumb.jpg)

*Artist: Поезд Родина
*Album: Прими Раба Твоего
*Year: 2020
*Genre: Funeral Doom Metal
*Country: International (IMG:https://metalarea.org/forum/style_images/flags/International.png)
*Format: mp3@CBR320kbps
*Size: 158MB

Tracklist:
1. Гарь 9:20
2. Добро Пожаловать В Ад 7:08
3. Прости 8:22
4. Прими Раба Твоего 11:36
5. Небесное Воинство 9:55
6. №503 12:53
******************************
Total playing time: 59:14

Extended info
+ Scans.

CD in jewel box with 4-page booklet. Limited edition of 500 copies.
(Silent Time Noise Records/Outer Line)


Technical info
(IMG:https://metalarea.org/images/spectrogram/2020_Nov/26aef8b55d704613c24c8a330287b270.png)
Input File: 1. Гарь.mp3
Channels : 2
Sample Rate : 44100
Precision : 16-bit
Duration : 00:09:20.96 = 24738380 samples = 42072.1 CDDA sectors
File Size : 22.4M
Bit Rate : 320k
Sample Encoding: MPEG audio (layer I, II or III)
Comments :
Title=Ãàðü
Artist=Ïîåçä Ðîäèíà
Album=Ïðèìè ðàáà òâîåãî
Tracknumber=1
Year=2020
Genre=Doom Metal



Register


Go to the top of the page
  Insert nick Quick quote
+Quote Post
2 Pages V  < 1 2  
Start new topic
Replies (30 - 32)
post Feb 16 2021, 09:02:32
Post #31

Два Литра
**
Group: Завсегдатай
Posts: 122
Releases: 0
On Forums: 5 months 1 week
Thanks: 70 time(s)
Somalia


ЦИТАТА(GRAF @ 20th November 2020 - 05:44:48) *
Парочка школьников насилующих ломом бомжа, в затопленном фекалиями подвале...


Как будто что-то плохое. Так в общем-то и звучит нормальная метал музыка.
Go to the top of the page
  Insert nick Quick quote
+Quote Post
post Feb 16 2021, 17:54:58
Post #32

####!111
**************
Group: Металариец
Posts: 4,354
Releases: 129
From: The Mountain Of DOOM
On Forums: 13 years 6 months
Thanks: 6068 time(s)
Russian Federation


Очень даже неплохо. С примесью атмо-блэка и глубоко похороненных фолковых мотивов.
А вот попытки в диссонансы получились не очень.


Thanks:
Go to the top of the page
  Insert nick Quick quote
+Quote Post
post Feb 23 2021, 17:16:39
Post #33

Самый Тихий Час
**************
Group: Металариец
Posts: 6,375
Releases: 6
On Forums: 11 years 5 months
Thanks: 2972 time(s)
Unknown


Потенциал и мелодический и атмосферный есть у ребят. Будем отслеживать творчество данных адептов русского экзистенциализма.
Go to the top of the page
  Insert nick Quick quote
+Quote Post

2 Pages V  < 1 2
Reply to this topicStart new topic
2 User(s) are reading this topic (2 Guests and 0 Anonymous Users)
0 Members:

 



- Lo-Fi Version Support form
Copyrights and abuse reports form
Time is now: 19th April 2021 - 09:35:42