Welcome Guest ( Log In | Register )

> King Gizzard & The Lizard Wizard - K.G. (2020), Psychedelic/Garage Rock/Doom/Thrash/Speed Metal/Various
post Nov 19 2020, 16:57:26
Post #1

Правь статус, ####!111
**************
Group: Металариец
Posts: 3,570
Releases: 3240
From: Одесса
On Forums: 12 years 7 months
Thanks: 34071 time(s)
Ukraine


(IMG:http://metalarea.org/images/audiocovers/2020_Nov/acov_tid344138_thumb.jpg)

*Artist: King Gizzard & The Lizard Wizard
*Album: K.G.
*Year: 2020
*Genre: Psychedelic/Garage Rock/Doom/Thrash/Speed Metal/Various
*Country: Australia (IMG:http://metalarea.org/forum/style_images/flags/Australia.png)
*Format: mp3@CBR320kbps
*Size: 98MB

Tracklist:
1. K.G.L.W. 01:36
2. Automation 03:29
3. Minimum Brain Size 04:18
4. Straws In The Wind 05:41
5. Some Of Us 03:52
6. Ontology 03:58
7. Intrasport 04:12
8. Oddlife 04:57
9. Honey 04:33
10. The Hungry Wolf Of Fate 05:07
******************************
Total playing time: 41:43



Extended info
Line - up:

Lucas Skinner - Bass
Michael Cavanagh - Drums
Cook Craig - Guitars, Bass
Joey Walker - Guitars, Keyboards
Ambrose Kenny-Smith - Vocals (backing), Harmonica, Keyboards
Stu Mackenzie - Vocals, Guitars, Keyboards, Piano, Synthesizer, Mellotron, Flute, Bass

(IMG:https://f4.bcbits.com/img/0001809130_10.jpg)


Technical info
(IMG:http://metalarea.org/images/spectrogram/2020_Nov/f2067ba23cedce1d808f10f5e45c238e.png)
Input File: 09. Honey.mp3
Channels : 2
Sample Rate : 44100
Precision : 16-bit
Duration : 00:04:33.94 = 12080666 samples = 20545.4 CDDA sectors
File Size : 11.0M
Bit Rate : 322k
Sample Encoding: MPEG audio (layer I, II or III)
Comments :
Title=Honey
Artist=King Gizzard And The Lizard Wizard
Album=K.G.
Tracknumber=9
Year=2020
Genre=Psychedelic/Garage Rock, Doom/Thrash/Speed Metal, Various



Register


Go to the top of the page
  Insert nick Quick quote
+Quote Post
 
Start new topic
Replies (1 - 5)
post Nov 21 2020, 01:03:13
Post #2

http://rateyourmusic.com/~Ghostb
**************
Group: Металариец
Posts: 2,510
Releases: 0
From: Харьков
On Forums: 11 years 4 months
Thanks: 1209 time(s)
Ukraine


Надо послушать, их прошлогодний треш-метал альбом был очень хорош.
Go to the top of the page
  Insert nick Quick quote
+Quote Post
post Nov 21 2020, 08:57:27
Post #3

Пять Литров
*****
Group: Металариец
Posts: 413
Releases: 0
From: Ташкент
On Forums: 12 years 11 months
Thanks: 123 time(s)
Uzbekistan


За десять лет всего лишь пятнадцатый альбом. Чёт маловато )))
Вообще удивительно, как можно так часто записывать качественный материал. При стабильном составе. Супертрудяги.


Thanks:
(1) Ghostb,
Go to the top of the page
  Insert nick Quick quote
+Quote Post
post Nov 21 2020, 15:13:40
Post #4

http://rateyourmusic.com/~Ghostb
**************
Group: Металариец
Posts: 2,510
Releases: 0
From: Харьков
On Forums: 11 years 4 months
Thanks: 1209 time(s)
Ukraine


Очередной хороший альбом. Саунд их нравится очень, идеальная стилизация (IMG:style_emoticons/default/20.gif)

ЦИТАТА(JPV @ Nov 21 2020, 09:57:27) *
За десять лет всего лишь пятнадцатый альбом. Чёт маловато )))
Вообще удивительно, как можно так часто записывать качественный материал. При стабильном составе. Супертрудяги

Или таланты) Работоспособность прям как в 60-70-ые годы - это да)
Go to the top of the page
  Insert nick Quick quote
+Quote Post
post Nov 21 2020, 16:04:08
Post #5

Два Литра
**
Group: Завсегдатай
Posts: 174
Releases: 0
From: Isla de Margarita, Venezuela
On Forums: 2 years 2 weeks
Thanks: 18 time(s)
Venezuela


Not Thrash, but very good album


Thanks:
(1) Ghostb,
Go to the top of the page
  Insert nick Quick quote
+Quote Post
post Nov 21 2020, 17:24:30
Post #6

http://rateyourmusic.com/~Ghostb
**************
Group: Металариец
Posts: 2,510
Releases: 0
From: Харьков
On Forums: 11 years 4 months
Thanks: 1209 time(s)
Ukraine


ЦИТАТА(metaljosue @ Nov 21 2020, 17:04:08) *
Not Thrash

Not speed and doom also)
Go to the top of the page
  Insert nick Quick quote
+Quote Post

Reply to this topicStart new topic
1 User(s) are reading this topic (1 Guests and 0 Anonymous Users)
0 Members:

 



- Lo-Fi Version Support form
Copyrights and abuse reports form
Time is now: 26th January 2021 - 17:27:53