Welcome Guest ( Log In | Register )

> Releases Upload / Добавление релизов

Добавить релиз тут / Click here to add release
Рекомендованные обменники / Recommended file shares

> Anderwelt - 2084 (2020), Post-Metal
post Nov 19 2020, 19:19:00
Post #1

Правь статус, ####!111
**************
Group: Металариец
Posts: 3,555
Releases: 3225
From: Одесса
On Forums: 12 years 7 months
Thanks: 33732 time(s)
Ukraine


(IMG:http://metalarea.org/images/audiocovers/2020_Nov/acov_tid344154_thumb.jpg)

*Artist: Anderwelt
*Album: 2084
*Year: 2020
*Genre: Post-Metal
*Country: Austria (IMG:http://metalarea.org/forum/style_images/flags/Austria.png)
*Format: mp3@CBR320kbps
*Size: 93MB

Tracklist:
1. #plenty
2. #true
3. #luv
4. #pax
******************************
Total playing time: 40:00



Extended info
Line - up:

Niki - Bass
Andi - Cello
Tom - Drums
Simon - Guitars (In Slumber, Olemus, Leinöl, ex-Thirdmoon, ex-Underground Groove Front)
Phil - Vocals (Reap)

(IMG:https://f4.bcbits.com/img/0022342342_10.jpg)


Technical info
(IMG:http://metalarea.org/images/spectrogram/2020_Nov/760f1e64d39b4160811d4b559ecb6399.png)
Input File: 03. Luv.mp3
Channels : 2
Sample Rate : 44100
Precision : 16-bit
Duration : 00:06:52.08 = 18172772 samples = 30906.1 CDDA sectors
File Size : 16.5M
Bit Rate : 320k
Sample Encoding: MPEG audio (layer I, II or III)
Comments :
Title=Luv
Artist=Anderwelt
Album=2084
Tracknumber=3
Year=2020
Genre=Post-Metal



Register


Go to the top of the page
  Insert nick Quick quote
+Quote Post
 
Start new topic
Replies (1 - 4)
post Nov 20 2020, 11:52:33
Post #2

Group: Подсевший
Posts: 15
Releases: 0
On Forums: 10 years 8 months
Thanks: 0 time(s)
Unknown


FLAC?
Go to the top of the page
  Insert nick Quick quote
+Quote Post
post Nov 20 2020, 14:30:58
Post #3

Group: Подсевший
Posts: 23
Releases: 0
On Forums: 11 years 5 months
Thanks: 16 time(s)
Unknown


ЦИТАТА(zbysio @ Nov 20 2020, 13:52:33) *
FLAC?

ссылка


Thanks:
(1) zbysio,
Go to the top of the page
  Insert nick Quick quote
+Quote Post
post Nov 20 2020, 18:44:50
Post #4

Два Литра
**
Group: Завсегдатай
Posts: 194
Releases: 0
From: минск сити
On Forums: 11 years 6 months
Thanks: 64 time(s)
Belarus


Неожиданно понравилось. Видать под осенней настрой попало. Спасибо релизеру.
Go to the top of the page
  Insert nick Quick quote
+Quote Post
post Nov 20 2020, 18:52:13
Post #5

Тридцать лет на борту "Тяжёлого" крейсера
**************
Group: Металариец
Posts: 2,457
Releases: 0
From: Питер
On Forums: 13 years 7 months
Thanks: 755 time(s)
Russian Federation


на фотке - Кронштадт 1917-го
те, кого не взяли в Смольный на разборки (или взяли, но решили отпустить)
но...это лучше Моргенштыря
хотя, конечно...безрадужно
Go to the top of the page
  Insert nick Quick quote
+Quote Post

Reply to this topicStart new topic
1 User(s) are reading this topic (1 Guests and 0 Anonymous Users)
0 Members:

 



- Lo-Fi Version Support form
Copyrights and abuse reports form
Time is now: 18th January 2021 - 10:47:15