Welcome Guest ( Log In | Register )

> Releases Upload / Добавление релизов

Добавить релиз тут / Click here to add release
Рекомендованные обменники / Recommended file shares

> Ilsa - Preyer (2020), Death/Doom Metal/Crust (D10)
post Nov 20 2020, 08:47:40
Post #1

Правь статус, ####!111
**************
Group: Металариец
Posts: 3,344
Releases: 3018
From: Одесса
On Forums: 12 years 5 months
Thanks: 30715 time(s)
Ukraine


(IMG:http://metalarea.org/images/audiocovers/2020_Nov/acov_tid344169_thumb.jpg)

*Artist: Ilsa
*Album: Preyer
*Year: 2020
*Genre: Death/Doom Metal/Crust
*Country: United States (IMG:http://metalarea.org/forum/style_images/flags/United%20States.png)
*Format: mp3@CBR320kbps
*Size: 107MB

Tracklist:
1. Epigraph 02:33
2. Poor Devil 04:13
3. Moonflower 05:00
4. Shibboleth 02:39
5. Mother of God 05:04
6. Scavengers 04:12
7. Widdershins 05:06
8. Preyer 04:53
9. Lady Diamond 04:21
10. Behind the Veil 02:37
11. The Square Coliseum 04:39
******************************
Total playing time: 45:17



Extended info
FLAC RIP

Line - up:

Sharad - Bass (ex-Midnight Eye (live))
Joshy - Drums (Dagger Moon, ex-Time of the Wolf, ex-Integrity, ex-Midnight Eye (live), ex-Exosus)
Brendan - Guitars (Dagger Moon)
Orion - Vocals (ex-Time of the Wolf)
Tim - Guitars (ex-Time of the Wolf)
Dylan - Guitars (ex-Time of the Wolf, ex-Midnight Eye, ex-Warlord U.K. (live), ex-Stull)

(IMG:https://www.metal-archives.com/images/3/5/4/0/3540312762_photo.jpg?4150)


Technical info
(IMG:http://metalarea.org/images/spectrogram/2020_Nov/c2a1608c39352adbfb7f2803a6ca270c.png)
Input File: 09. Lady Diamond.mp3
Channels : 2
Sample Rate : 44100
Precision : 16-bit
Duration : 00:04:21.87 = 11548423 samples = 19640.2 CDDA sectors
File Size : 10.5M
Bit Rate : 321k
Sample Encoding: MPEG audio (layer I, II or III)
Comments :
Title=Lady Diamond
Artist=Ilsa
Album=Preyer
Tracknumber=9
Year=2020
Genre=Death/Doom Metal/Crust



Register


Go to the top of the page
  Insert nick Quick quote
+Quote Post
 
Start new topic
Replies (1 - 1)
post Nov 21 2020, 13:28:57
Post #2

Литр
*
Group: Подсевший
Posts: 89
Releases: 5
On Forums: 6 years 9 months
Thanks: 103 time(s)
Russian Federation


ого, вот это неожиданный подгон (IMG:style_emoticons/default/banana.gif)
Go to the top of the page
  Insert nick Quick quote
+Quote Post

Reply to this topicStart new topic
1 User(s) are reading this topic (1 Guests and 0 Anonymous Users)
0 Members:

 



- Lo-Fi Version Support form
Copyrights and abuse reports form
Time is now: 28th November 2020 - 22:52:10