Welcome Guest ( Log In | Register )

> Releases Upload / Добавление релизов

Добавить релиз тут / Click here to add release
Рекомендованные обменники / Recommended file shares

 
Reply to this topicStart new topic
> King Gizzard & The Lizard Wizard - Live In San Francisco '16 [live] (2020), Psychedelic/Garage Rock/Doom/Thrash/Speed Metal/Various
post Nov 20 2020, 09:39:31
Post #1

Правь статус, ####!111
**************
Group: Металариец
Posts: 3,344
Releases: 3018
From: Одесса
On Forums: 12 years 5 months
Thanks: 30715 time(s)
Ukraine


(IMG:http://metalarea.org/images/audiocovers/2020_Nov/acov_tid344170_thumb.jpg)

*Artist: King Gizzard & The Lizard Wizard
*Album: Live In San Francisco '16 [live]
*Year: 2020
*Genre: Psychedelic/Garage Rock/Doom/Thrash/Speed Metal/Various
*Country: Australia (IMG:http://metalarea.org/forum/style_images/flags/Australia.png)
*Format: mp3@CBR320kbps
*Size: 192MB

Tracklist:
1. Robot Stop 04:21
2. Hot Water 03:40
3. Big Fig Wasp 05:11
4. Gamma Knife 04:01
5. People-Vultures 05:21
6. Trapdoor 03:22
7. I'm In Your Mind 03:21
8. I'm Not In Your Mind 03:22
9. Cellophane 02:57
10. I'm In Your Mind Fuzz 02:58
11. The River 10:57
12. Evil Death Roll 08:12
13. Head On/Pill 22:30
******************************
Total playing time: 1:20:13



Extended info
Line - up:

Lucas Skinner - Bass
Michael Cavanagh - Drums
Cook Craig - Guitars, Bass
Joey Walker - Guitars, Keyboards
Ambrose Kenny-Smith - Vocals (backing), Harmonica, Keyboards
Stu Mackenzie - Vocals, Guitars, Keyboards, Piano, Synthesizer, Mellotron, Flute, Bass

(IMG:https://www.metal-archives.com/images/3/5/4/0/3540457093_photo.jpg?3841)


Technical info
(IMG:http://metalarea.org/images/spectrogram/2020_Nov/66ede54a268f11a1008955abbf034c75.png)
Input File: 07 - I\'m In Your Mind.mp3
Channels : 2
Sample Rate : 44100
Precision : 16-bit
Duration : 00:03:21.65 = 8892897 samples = 15124 CDDA sectors
File Size : 8.07M
Bit Rate : 320k
Sample Encoding: MPEG audio (layer I, II or III)
Comments :
Title=I'm In Your Mind
Artist=King Gizzard & The Lizard Wizard
Album=Live In San Francisco '16 (Live)
Tracknumber=7
Year=2020
Genre=Psychedelic/Garage Rock, Doom/Thrash/Speed Metal, Various



Register


Go to the top of the page
  Insert nick Quick quote
+Quote Post

Reply to this topicStart new topic
1 User(s) are reading this topic (1 Guests and 0 Anonymous Users)
0 Members:

 



- Lo-Fi Version Support form
Copyrights and abuse reports form
Time is now: 28th November 2020 - 23:15:16