Welcome Guest ( Log In | Register )

> Anchorite - Further From Eternity (2020), Epic Doom Metal
post Nov 20 2020, 15:57:47
Post #1

Правь статус, ####!111
**************
Group: Металариец
Posts: 25,789
Releases: 18466
From: Г.Харьков
On Forums: 8 years 11 months
Thanks: 364668 time(s)
Unknown


(IMG:http://metalarea.org/images/audiocovers/2020_Nov/acov_tid344174_thumb.jpg)

*Artist: Anchorite
*Album: Further From Eternity
*Year: 2020
*Genre: Epic Doom Metal
*Country: International (IMG:http://metalarea.org/forum/style_images/flags/International.png)
*Format: mp3@CBR320kbps
*Size: 124MB

Tracklist:
1. The Blood Of The Anchorite 06:20
2. Of Dark Destinies 07:54
3. Like A River Through The Snow 05:41
4. Alone With The Horrors 04:17
5. Valhalla Awaits 09:55
6. Ebbing Tide 05:58
7. Dragons 06:01
8. Further From Eternity 07:50
******************************
Total playing time: 53:56



Extended info
Sweden / Malta / Denmark
Leo Stivala - vocals
Martin Jepsen Andersen – guitars
Peter Svensson – bass
Marcus Rosenkvist - drums


Technical info
(IMG:http://metalarea.org/images/spectrogram/2020_Nov/b29c31d7481bf5d2c485deccc712243f.png)
Input File: 07 - Dragons.mp3
Channels : 2
Sample Rate : 44100
Precision : 16-bit
Duration : 00:06:01.27 = 15931875 samples = 27095 CDDA sectors
File Size : 14.6M
Bit Rate : 324k
Sample Encoding: MPEG audio (layer I, II or III)
Comments :
Title=Dragons
Artist=Anchorite
Album=Further From Eternity
Tracknumber=7
Year=2020



Register


Go to the top of the page
  Insert nick Quick quote
+Quote Post
 
Start new topic
Replies (1 - 3)
post Nov 21 2020, 07:29:46
Post #2

hearer & reader
**************
Group: Металариец
Posts: 9,619
Releases: 170
From: Moscow
On Forums: 13 years 7 months
Thanks: 10629 time(s)
Russian Federation


https://music.yandex.ru/album/12464809
Go to the top of the page
  Insert nick Quick quote
+Quote Post
post Nov 21 2020, 14:31:14
Post #3

####!111
**************
Group: Металариец
Posts: 4,354
Releases: 129
From: The Mountain Of DOOM
On Forums: 13 years 6 months
Thanks: 6068 time(s)
Russian Federation


Updated:
ЦИТАТА(Samaritianin @ 20th November 2020 - 18:57:47) *
Leo Stivala - vocals - Forsaken (Malta) (IMG:style_emoticons/default/pray.gif)
Martin Jepsen Andersen – guitars - Meridian (Denmark)
Peter Svensson – bass - Void Moon (Sweden)
Marcus Rosenkvist - drums - Void Moon (Sweden)



Thanks:
Go to the top of the page
  Insert nick Quick quote
+Quote Post
post Dec 23 2020, 18:33:50
Post #4

Четыре Литра
****
Group: Металариец
Posts: 353
Releases: 5
From: Суворов
On Forums: 3 years 2 months
Thanks: 77 time(s)
Russian Federation


Какой дум, и без шведов?!
Go to the top of the page
  Insert nick Quick quote
+Quote Post

Reply to this topicStart new topic
2 User(s) are reading this topic (2 Guests and 0 Anonymous Users)
0 Members:

 



- Lo-Fi Version Support form
Copyrights and abuse reports form
Time is now: 19th April 2021 - 10:30:37