Welcome Guest ( Log In | Register )

> 

Здесь релизы с живыми прямыми ссылками на lossless

> Carcinogenesis - Waiting To Rot (2020), Death Metal
post Nov 20 2020, 16:13:45
Post #1

Правь статус, ####!111
**************
Group: Металариец
Posts: 23,919
Releases: 16810
From: Г.Харьков
On Forums: 8 years 6 months
Thanks: 319770 time(s)
Unknown


(IMG:http://metalarea.org/images/audiocovers/2020_Nov/acov_tid344175_thumb.jpg)

*Artist: Carcinogenesis
*Album: Waiting To Rot
*Year: 2020
*Genre: Death Metal
*Country: Brazil (IMG:http://metalarea.org/forum/style_images/flags/Brazil.png)
*Format: mp3@CBR320kbps
*Size: 82MB

Tracklist:
1. The Redeemer 04:10
2. Your Remains to the Pigs 04:59
3. Smell of Death 03:09
4. From the Past 03:51
5. Rotting Away 04:23
6. Forsaken by the Light 04:21
7. Hanging Bodies in a Gray Day 04:15
8. God Delusion 05:58
******************************
Total playing time: 35:06




Extended info
Wilker Bass (2017-present)
Luiz Rodrigues Drums (2017-present)
Hugo Bosso Guitars (2017-present)
Guilherme Guitars (2017-present)
See also: ex-Arkhaikus
Alexandre Galhardo Vocals (2017-present)


Technical info
(IMG:http://metalarea.org/images/spectrogram/2020_Nov/01e8b74847c0274fc78d87ad03817ec6.png)
Input File: 07 - Hanging Bodies in a Gray Day.mp3
Channels : 2
Sample Rate : 44100
Precision : 16-bit
Duration : 00:04:15.88 = 11284440 samples = 19191.2 CDDA sectors
File Size : 10.4M
Bit Rate : 327k
Sample Encoding: MPEG audio (layer I, II or III)
Comments :
Title=Hanging Bodies in a Gray Day
Artist=Carcinogenesis
Album=Waiting to Rot
Tracknumber=7
Year=2020



Register


Go to the top of the page
  Insert nick Quick quote
+Quote Post
 
Start new topic
Replies (1 - 1)
post Nov 21 2020, 09:36:13
Post #2

Семь Литров
*******
Group: Металариец
Posts: 776
Releases: 1
From: APATIN, SERBIA, АПАТИН, СЕРБИЯ
On Forums: 13 years 1 month
Thanks: 1472 time(s)



Flac

Register


Thanks:
Go to the top of the page
  Insert nick Quick quote
+Quote Post

Reply to this topicStart new topic
1 User(s) are reading this topic (1 Guests and 0 Anonymous Users)
0 Members:

 



- Lo-Fi Version Support form
Copyrights and abuse reports form
Time is now: 25th November 2020 - 08:24:19