Welcome Guest ( Log In | Register )

> Releases Upload / Добавление релизов

Добавить релиз тут / Click here to add release
Рекомендованные обменники / Recommended file shares

 
Reply to this topicStart new topic
> Subterraen - Rotten Human Kingdom (2020), Blackened Sludge/Doom Metal
post Nov 20 2020, 16:21:19
Post #1

Правь статус, ####!111
**************
Group: Металариец
Posts: 3,316
Releases: 2992
From: Одесса
On Forums: 12 years 5 months
Thanks: 30380 time(s)
Ukraine


(IMG:http://metalarea.org/images/audiocovers/2020_Nov/acov_tid344176_thumb.jpg)

*Artist: Subterraen
*Album: Rotten Human Kingdom
*Year: 2020
*Genre: Blackened Sludge/Doom Metal
*Country: France (IMG:http://metalarea.org/forum/style_images/flags/France.png)
*Format: mp3@CBR320kbps
*Size: 115MB

Tracklist:
1. Blood for the Blood Gods 13:28
2. For a Fistful of Silver 14:30
3. Oceans are Rising 02:33
4. Wrath of a Downtrodden Planet 18:20
******************************
Total playing time: 48:51



Extended info
Line - up:

Milvus - Drums
Chris KKP - Guitar, Sound design (Abjvration, ex-HKY, ex-Hangman's Chair (live), ex-Time to Burn, ex-Huata, ex-Every Reason to...)
Clem Helvete - Guitars, Vocals (Owl Coven)

(IMG:https://www.metal-archives.com/images/3/5/4/0/3540473068_photo.jpg?2513)


Technical info
(IMG:http://metalarea.org/images/spectrogram/2020_Nov/79c688c7f782a5956ef16ad099af4187.png)
Input File: 04. Wrath of a Downtrodden Planet.mp3
Channels : 2
Sample Rate : 44100
Precision : 16-bit
Duration : 00:18:21.02 = 48554982 samples = 82576.5 CDDA sectors
File Size : 44.0M
Bit Rate : 320k
Sample Encoding: MPEG audio (layer I, II or III)
Comments :
Title=Wrath of a Downtrodden Planet
Artist=Subterraen
Album=Rotten Human Kingdom
Tracknumber=4
Year=2020
Genre=Blackened Sludge/Doom Metal



Register


Go to the top of the page
  Insert nick Quick quote
+Quote Post

Reply to this topicStart new topic
1 User(s) are reading this topic (1 Guests and 0 Anonymous Users)
0 Members:

 



- Lo-Fi Version Support form
Copyrights and abuse reports form
Time is now: 25th November 2020 - 09:25:03