Welcome Guest ( Log In | Register )

> Releases Upload / Добавление релизов

Добавить релиз тут / Click here to add release
Рекомендованные обменники / Recommended file shares

> Stud - War Of Power (2020), Heavy Metal
post Nov 20 2020, 16:43:44
Post #1

Правь статус, ####!111
**************
Group: Металариец
Posts: 23,919
Releases: 16810
From: Г.Харьков
On Forums: 8 years 6 months
Thanks: 319770 time(s)
Unknown


(IMG:http://metalarea.org/images/audiocovers/2020_Nov/acov_tid344177_thumb.jpg)

*Artist: Stud
*Album: War Of Power
*Year: 2020
*Genre: Heavy Metal
*Country: Finland (IMG:http://metalarea.org/forum/style_images/flags/Finland.png)
*Format: mp3@CBR320kbps
*Size: 105MB

Tracklist:
01. War of Power
02. In My Tragedy
03. Addiction
04. Tired
05. Demon's Gate
06. Darkness to Fall
07. Movin' on
08. Soulmate
09. Wings in Fire
10. Seeker
******************************
Total playing time: 43:37



Extended info
Stenda Kukkonen Drums (1986-1989, 2013-present)
Mika Kansikas Guitars (1986-1989, 2013-present)
See also: ex-Distance
Ari Toivanen Vocals (1986-1989, 2013-present)
Jari Behm Bass (2018-present)
See also: ex-Stratovarius, ex-TunnelVision, ex-Tunnel vision


Technical info
(IMG:http://metalarea.org/images/spectrogram/2020_Nov/cd72cdc5b7fbc72c753b91f926f97469.png)
Input File: 09 Wings on Fire.mp3
Channels : 2
Sample Rate : 44100
Precision : 16-bit
Duration : 00:05:39.06 = 14952634 samples = 25429.6 CDDA sectors
File Size : 14.1M
Bit Rate : 332k
Sample Encoding: MPEG audio (layer I, II or III)
Comments :
Title=Wings on Fire
Artist=Stud
Album=War of Power
Tracknumber=9/10
Year=2020-20-20
Genre=Rock
Discnumber=1/1



Register


Go to the top of the page
  Insert nick Quick quote
+Quote Post
 
Start new topic
Replies (1 - 2)
post Nov 21 2020, 08:39:20
Post #2

hearer & reader
**************
Group: Металариец
Posts: 9,210
Releases: 163
From: Moscow
On Forums: 13 years 2 months
Thanks: 9831 time(s)
Russian Federation


https://music.yandex.ru/album/12434300
Go to the top of the page
  Insert nick Quick quote
+Quote Post
post Nov 21 2020, 11:45:56
Post #3

Правь статус, ####!111
**************
Group: Металариец
Posts: 3,305
Releases: 10
From: Dnipro
On Forums: 12 years 4 months
Thanks: 1195 time(s)
Ukraine


Лого издали почти как у DIO (IMG:style_emoticons/default/smile4.gif)


Thanks:
Go to the top of the page
  Insert nick Quick quote
+Quote Post

Reply to this topicStart new topic
1 User(s) are reading this topic (1 Guests and 0 Anonymous Users)
0 Members:

 



- Lo-Fi Version Support form
Copyrights and abuse reports form
Time is now: 25th November 2020 - 08:31:03