Welcome Guest ( Log In | Register )

> 

Здесь релизы с живыми прямыми ссылками на lossless

> Calvarium - The Rituals (2020), Black/Death Metal
post Nov 20 2020, 17:07:00
Post #1

Правь статус, ####!111
**************
Group: Металариец
Posts: 23,980
Releases: 16852
From: Г.Харьков
On Forums: 8 years 6 months
Thanks: 321102 time(s)
Unknown


(IMG:https://metalarea.org/images/audiocovers/2020_Nov/acov_tid344178_thumb.jpg)

*Artist: Calvarium
*Album: The Rituals
*Year: 2020
*Genre: Black/Death Metal
*Country: Indonesia (IMG:https://metalarea.org/forum/style_images/flags/Indonesia.png)
*Format: mp3@CBR320kbps
*Size: 76MB

Tracklist:
1. The Rituals
2. Apocalypse
3. Through the Gates of Hell
4. Datia Bakeng
5. To the Eternal Fire
6. Your Darkest Path
7. Unholy Prophecy
8. Ruata
******************************
Total playing time: 32:48




Extended info
Alan Drums (2011-present)
Brian Guitars (2011-present)
Chris Guitars (2011-present)
Hafidz Vocals (2013-present)
Andre Bass (2014-present)


Technical info
(IMG:https://metalarea.org/images/spectrogram/2020_Nov/9de8ecc447a57d61f29c444dd7189c88.png)
Input File: 06 - Your Darkest Path.mp3
Channels : 2
Sample Rate : 44100
Precision : 16-bit
Duration : 00:04:37.67 = 12245247 samples = 20825.2 CDDA sectors
File Size : 11.2M
Bit Rate : 323k
Sample Encoding: MPEG audio (layer I, II or III)
Comments :
Title=Your Darkest Path
Artist=Calvarium
Album=The Rituals
Tracknumber=6
Year=2020



Register


Go to the top of the page
  Insert nick Quick quote
+Quote Post
 
Start new topic
Replies (1 - 3)
post Nov 21 2020, 05:36:13
Post #2

Crush! Kill! Destroy!
**************
Group: Металариец
Posts: 5,606
Releases: 15
From: Kaliningrad
On Forums: 13 years 1 week
Thanks: 5311 time(s)
Russian Federation


Чуть не подумал хорошее, а это оказался не тот Calvarium ))


Go to the top of the page
  Insert nick Quick quote
+Quote Post
post Nov 21 2020, 08:34:07
Post #3

hearer & reader
**************
Group: Металариец
Posts: 9,219
Releases: 163
From: Moscow
On Forums: 13 years 2 months
Thanks: 9848 time(s)
Russian Federation


https://music.yandex.ru/album/12688404
Blackened Death Metal, и даже недурной.
Go to the top of the page
  Insert nick Quick quote
+Quote Post
post Nov 21 2020, 09:35:00
Post #4

Семь Литров
*******
Group: Металариец
Posts: 778
Releases: 1
From: APATIN, SERBIA, АПАТИН, СЕРБИЯ
On Forums: 13 years 1 month
Thanks: 1480 time(s)



Flac

Register


Go to the top of the page
  Insert nick Quick quote
+Quote Post

Reply to this topicStart new topic
1 User(s) are reading this topic (1 Guests and 0 Anonymous Users)
0 Members:

 



- Lo-Fi Version Support form
Copyrights and abuse reports form
Time is now: 29th November 2020 - 00:06:14