Welcome Guest ( Log In | Register )

> Releases Upload / Добавление релизов

Добавить релиз тут / Click here to add release
Рекомендованные обменники / Recommended file shares

 
Reply to this topicStart new topic
> Skeleton - Skeletal Structure (2020), Heavy/Thrash Metal (D8)
post Nov 20 2020, 18:03:32
Post #1

Правь статус, ####!111
**************
Group: Металариец
Posts: 23,980
Releases: 16852
From: Г.Харьков
On Forums: 8 years 6 months
Thanks: 321092 time(s)
Unknown


(IMG:http://metalarea.org/images/audiocovers/2020_Nov/acov_tid344179_thumb.jpg)

*Artist: Skeleton
*Album: Skeletal Structure
*Year: 2020
*Genre: Heavy/Thrash Metal
*Country: Sweden (IMG:http://metalarea.org/forum/style_images/flags/Sweden.png)
*Format: mp3@CBR320kbps
*Size: 99MB

Tracklist:
1. Conducting Dices 04:22
2. The Hunt 06:20
3. Awakening 05:30
4. Skeletal Structure 05:33
5. Center of The Universe 04:06
6. Surveillance 05:03
7. Empire 09:43
******************************
Total playing time: 40:37




Extended info
Kristoffer Karlsson Bass
Robin Karlsson Drums
Christian Pettersson Guitars (lead) (2013-present)
Daniel Pettersson Vocals, Guitars (rhythm) (2013-present)


Technical info
(IMG:http://metalarea.org/images/spectrogram/2020_Nov/34a1ac2b447938143405ffb83c071ee3.png)
Input File: 06 Surveillance.mp3
Channels : 2
Sample Rate : 44100
Precision : 16-bit
Duration : 00:05:03.93 = 13403093 samples = 22794.4 CDDA sectors
File Size : 12.2M
Bit Rate : 320k
Sample Encoding: MPEG audio (layer I, II or III)
Comments :
Title=Surveillance
Artist=Skeleton
Album=Skeletal Structure
Tracknumber=6/7
Year=2020-20-20
Genre=Metal
Discnumber=1/1



Register


Go to the top of the page
  Insert nick Quick quote
+Quote Post

Reply to this topicStart new topic
1 User(s) are reading this topic (1 Guests and 0 Anonymous Users)
0 Members:

 



- Lo-Fi Version Support form
Copyrights and abuse reports form
Time is now: 28th November 2020 - 23:11:38