Welcome Guest ( Log In | Register )

 
Reply to this topicStart new topic
> Fergon - Requiem (2020), Melodic Black/Death Metal
post Nov 20 2020, 18:31:36
Post #1

Правь статус, ####!111
**************
Group: Металариец
Posts: 23,919
Releases: 16810
From: Г.Харьков
On Forums: 8 years 6 months
Thanks: 319781 time(s)
Unknown


(IMG:http://metalarea.org/images/audiocovers/2020_Nov/acov_tid344182_thumb.jpg)

*Artist: Fergon
*Album: Requiem
*Year: 2020
*Genre: Melodic Black/Death Metal
*Country: Chile (IMG:http://metalarea.org/forum/style_images/flags/Chile.png)
*Format: mp3@CBR320kbps
*Size: 90MB

Tracklist:
1. Nine 01:47
2. Curse of Blame 04:58
3. Requiem 06:34
4. Dancing on the Grave 04:51
5. Illuminated 05:06
6. Cemetery Breeze 03:00
7. Rotten Trees 05:08
8. The Dark Library 05:22
******************************
Total playing time: 36:46



Extended info
Jan Stones Everything
See also: Wolframe


Technical info
(IMG:http://metalarea.org/images/spectrogram/2020_Nov/e12dd7c4489e0cac48eada6b35a24ac3.png)
Input File: 07 Rotten Trees.mp3
Channels : 2
Sample Rate : 44100
Precision : 16-bit
Duration : 00:05:08.55 = 13607011 samples = 23141.2 CDDA sectors
File Size : 13.0M
Bit Rate : 338k
Sample Encoding: MPEG audio (layer I, II or III)
Comments :
Title=Rotten Trees
Artist=Fergon
Album=Requiem
Tracknumber=7/8
Year=2020-20-20
Genre=Metal
Discnumber=1/1



Register


Go to the top of the page
  Insert nick Quick quote
+Quote Post

Reply to this topicStart new topic
1 User(s) are reading this topic (1 Guests and 0 Anonymous Users)
0 Members:

 



- Lo-Fi Version Support form
Copyrights and abuse reports form
Time is now: 25th November 2020 - 09:21:32