Welcome Guest ( Log In | Register )

> Releases Upload / Добавление релизов

Добавить релиз тут / Click here to add release
Рекомендованные обменники / Recommended file shares

> Vandrer - Vandrer (2020), Doom Metal
post Nov 20 2020, 18:36:32
Post #1

Правь статус, ####!111
**************
Group: Металариец
Posts: 47,706
Releases: 757
On Forums: 11 years 5 months
Thanks: 41078 time(s)
Russian Federation


(IMG:http://metalarea.org/images/audiocovers/2020_Nov/acov_tid344183_thumb.jpg)

*Artist: Vandrer
*Album: Vandrer
*Year: 2020
*Genre: Doom Metal
*Country: Norway (IMG:http://metalarea.org/forum/style_images/flags/Norway.png)
*Format: mp3@CBR320kbps
*Size: 169MB

Tracklist:
1. Descension / Realm Of Inversion 15:37
2. Rememberance / To Exit The Vessel 15:01
3. The Light Trap 12:17
4. Black Portal Moksha 11:40
5. Beyond The Firmament / Into The Outward Breath 17:46
******************************
Total playing time: 1:12:21



Technical info
(IMG:http://metalarea.org/images/spectrogram/2020_Nov/798a4f959b244cf76da974a971a81b30.png)
Input File: Vandrer - S-T - 01 Descension - Realm of Inversion.mp3
Channels : 2
Sample Rate : 44100
Precision : 16-bit
Duration : 00:15:37.27 = 41333739 samples = 70295.5 CDDA sectors
File Size : 37.7M
Bit Rate : 322k
Sample Encoding: MPEG audio (layer I, II or III)
Comments :
Title=Descension / Realm of Inversion
Artist=Vandrer
Album=S/T
Tracknumber=1
Year=2020



Register


Go to the top of the page
  Insert nick Quick quote
+Quote Post
 
Start new topic
Replies (1 - 3)
post Nov 21 2020, 08:24:38
Post #2

hearer & reader
**************
Group: Металариец
Posts: 9,219
Releases: 163
From: Moscow
On Forums: 13 years 2 months
Thanks: 9848 time(s)
Russian Federation


Ole Hell , его же проект Shepherds Crook


Thanks:
Go to the top of the page
  Insert nick Quick quote
+Quote Post
post Nov 21 2020, 12:42:21
Post #3

Правь статус, ####!111
**************
Group: Металариец
Posts: 47,706
Releases: 757
On Forums: 11 years 5 months
Thanks: 41078 time(s)
Russian Federation


Замечательный совершенно альбом, впрочем, учитывая основную группу участника, иного и не ожидалось (IMG:style_emoticons/default/pray.gif)
Go to the top of the page
  Insert nick Quick quote
+Quote Post
post Nov 24 2020, 12:34:38
Post #4

Литр
*
Group: Подсевший
Posts: 55
Releases: 1
From: Hamburg
On Forums: 7 years 4 weeks
Thanks: 33 time(s)
Germany


this is really great, like it a lot
thank you!
Go to the top of the page
  Insert nick Quick quote
+Quote Post

Reply to this topicStart new topic
1 User(s) are reading this topic (1 Guests and 0 Anonymous Users)
0 Members:

 



- Lo-Fi Version Support form
Copyrights and abuse reports form
Time is now: 28th November 2020 - 22:54:45