Welcome Guest ( Log In | Register )

> Releases Upload / Добавление релизов

Добавить релиз тут / Click here to add release
Рекомендованные обменники / Recommended file shares

> Pillars Of Sarnath - Unreleased Tracks (2014), Chiptune/Technical Death Metal
post Nov 20 2020, 18:44:47
Post #1

?
*********
Group: Металариец
Posts: 937
Releases: 9
From: Ставрополь
On Forums: 11 years 4 months
Thanks: 529 time(s)
Russian Federation


(IMG:https://metalarea.org/images/audiocovers/2020_Nov/acov_tid344184_thumb.jpg)

*Artist: Pillars Of Sarnath
*Album: Unreleased Tracks
*Year: 2014
*Genre: Chiptune/Technical Death Metal
*Country: United States (IMG:https://metalarea.org/forum/style_images/flags/United%20States.png)
*Format: mp3@CBR320kbps
*Size: 41MB

Tracklist:
01. ==Sunbeams== 1:16
02. The New Monarch 2:25
03. That One Girl Who Can See Grids 1:05
04. Palace Athene 2:19
05. Supreme Hive 1:05
06. 3599594 2:24
07. Jellyfish 1:30
08. Steelwing 3:02
09. Primevil 2:08
******************************
Total playing time: 17:14



Technical info
(IMG:https://metalarea.org/images/spectrogram/2020_Nov/f1462f11d3ca63cf986050cdb7eeb7c7.png)
Input File: 08 Steelwing.mp3
Channels : 2
Sample Rate : 44100
Precision : 16-bit
Duration : 00:03:02.48 = 8047148 samples = 13685.6 CDDA sectors
File Size : 7.45M
Bit Rate : 327k
Sample Encoding: MPEG audio (layer I, II or III)
Comments :
Title=Steelwing
Artist=Pillars Of Sarnath
Album=Unreleased Tracks
Tracknumber=8
Year=2014



Register


Go to the top of the page
  Insert nick Quick quote
+Quote Post
 
Start new topic
Replies (1 - 2)
post Nov 21 2020, 13:25:52
Post #2

Crush! Kill! Destroy!
**************
Group: Металариец
Posts: 5,608
Releases: 15
From: Kaliningrad
On Forums: 13 years 1 week
Thanks: 5313 time(s)
Russian Federation


ватафак из чиптьюн?
Go to the top of the page
  Insert nick Quick quote
+Quote Post
post Nov 21 2020, 13:37:07
Post #3

?
*********
Group: Металариец
Posts: 937
Releases: 9
From: Ставрополь
On Forums: 11 years 4 months
Thanks: 529 time(s)
Russian Federation


ЦИТАТА(Dmitry1977 @ Nov 21 2020, 16:25:52) *
ватафак из чиптьюн?

ЦИТАТА
Чиптюн (англ. chiptune) — электронная музыка, синтезируемая в реальном времени аудиочипом компьютера или игровой приставки (обычно ранних поколений), а не набором музыкальных семплов, записанных с аудиоустройств. Рассветом чиптюна является середина 1980-х — середина 1990-х, при появлении звуковых чипов в первых домашних компьютерах, таких как Commodore 64, ZX-Spectrum и т. д. В чиптюне звук кодируется при помощи простейших математических формул, задающих звуковые волны разной длины, плюс шумовой канал. Музыка создавалась не расположением нот на нотном стане, а фактически написанием отдельной программы. Позднее появились специальные программы, как правило, работающие по принципу трекера.

Из-за простоты технологий максимальное число одновременно воспроизводящихся звуков было невелико — резких, сменяющих друг друга высоких и низких тональностей, образующих аккорд (арпеджио), что делает чип-музыку слишком грубой для восприятия неподготовленного слушателя. Позже термин чиптюн стал применяться и к композициям, в которых пытаются воссоздать звучание старых звуковых чипов на современных, более совершенных системах.

Чиптьюн

Go to the top of the page
  Insert nick Quick quote
+Quote Post

Reply to this topicStart new topic
2 User(s) are reading this topic (2 Guests and 0 Anonymous Users)
0 Members:

 



- Lo-Fi Version Support form
Copyrights and abuse reports form
Time is now: 29th November 2020 - 20:08:32