Welcome Guest ( Log In | Register )

> Releases Upload / Добавление релизов

Добавить релиз тут / Click here to add release
Рекомендованные обменники / Recommended file shares

> Lost Ancestry - Trails Of Yesterday (2020), Black Metal
post Nov 20 2020, 18:52:31
Post #1

Правь статус, ####!111
**************
Group: Металариец
Posts: 23,980
Releases: 16852
From: Г.Харьков
On Forums: 8 years 6 months
Thanks: 321092 time(s)
Unknown


(IMG:http://metalarea.org/images/audiocovers/2020_Nov/acov_tid344185_thumb.jpg)

*Artist: Lost Ancestry
*Album: Trails Of Yesterday
*Year: 2020
*Genre: Black Metal
*Country: Ukraine (IMG:http://metalarea.org/forum/style_images/flags/Ukraine.png)
*Format: mp3@CBR320kbps
*Size: 82MB

Tracklist:
1. Приготування (Preparation) 01:19 instrumental
2. Стежки вчорашніх днів (Trails of Yesterday) 09:36
3. Народжені зникнути (Born to Disappear) 07:18
4. Попереду лише порожнеча (Only Emptiness Is Ahead) 05:12
5. Північний вітер віє (The North Wind Is Blowing) 10:04
6. Рукописи не горять (Manuscripts Don't Burn) 01:55 instrumental
******************************
Total playing time: 35:24



Technical info
(IMG:http://metalarea.org/images/spectrogram/2020_Nov/4049fbeac38c230f86fbe455fc34c929.png)
Input File: 05 - Північний вітер віє.mp3
Channels : 2
Sample Rate : 44100
Precision : 16-bit
Duration : 00:10:04.00 = 26636400 samples = 45300 CDDA sectors
File Size : 24.4M
Bit Rate : 323k
Sample Encoding: MPEG audio (layer I, II or III)
Comments :
Title=ϳâí³÷íèé â³òåð ⳺
Artist=Lost Ancestry
Album=Trails of Yesterday
Tracknumber=5
Year=2020-21-11
Discnumber=1



Register


Go to the top of the page
  Insert nick Quick quote
+Quote Post
 
Start new topic
Replies (1 - 1)
post Nov 22 2020, 10:19:52
Post #2

Четыре Литра
****
Group: Металариец
Posts: 361
Releases: 0
From: Kyiv
On Forums: 8 years 7 months
Thanks: 148 time(s)
Ukraine


мыршаво
Go to the top of the page
  Insert nick Quick quote
+Quote Post

Reply to this topicStart new topic
1 User(s) are reading this topic (1 Guests and 0 Anonymous Users)
0 Members:

 



- Lo-Fi Version Support form
Copyrights and abuse reports form
Time is now: 28th November 2020 - 23:05:47