Welcome Guest ( Log In | Register )

> Releases Upload / Добавление релизов

Добавить релиз тут / Click here to add release
Рекомендованные обменники / Recommended file shares

> Ленар Деллерт - Сны (2020), Doom/Death Metal/Rock (D5)
post Nov 20 2020, 18:52:59
Post #1

Правь статус, ####!111
**************
Group: Металариец
Posts: 3,344
Releases: 3018
From: Одесса
On Forums: 12 years 5 months
Thanks: 30716 time(s)
Ukraine


(IMG:http://metalarea.org/images/audiocovers/2020_Nov/acov_tid344186_thumb.jpg)

*Artist: Ленар Деллерт
*Album: Сны
*Year: 2020
*Genre: Doom/Death Metal/Rock
*Country: Russian Federation (IMG:http://metalarea.org/forum/style_images/flags/Russian%20Federation.png)
*Format: mp3@CBR320kbps
*Size: 127MB

Tracklist:
1. Сцена I. Мгновение 03:27
2. Сцена II. Забыться 09:15
3. Сцена III. Туманной тропой 04:48
4. Сцена IV. Тени 04:44
5. Сцена V. Оцепенение 03:59
6. Сцена VI. Картина из тысячи глаз 08:23
7. Сцена VII. Всё ближе рассвет 07:45
8. Сцена VIII. Созерцание 01:42
9. Сцена IX. Утро 09:25
******************************
Total playing time: 53:28



Technical info
(IMG:http://metalarea.org/images/spectrogram/2020_Nov/567f75b73adbac880dbc66444f2d787d.png)
Input File: 02. Сцена II. Забыться.mp3
Channels : 2
Sample Rate : 44100
Precision : 16-bit
Duration : 00:09:15.16 = 24482644 samples = 41637.1 CDDA sectors
File Size : 22.2M
Bit Rate : 320k
Sample Encoding: MPEG audio (layer I, II or III)
Comments :
Title=Сцена II. Забыться
Artist=Ленар Деллерт
Album=Сны
Tracknumber=2
Year=2020
Genre=Doom/Death Metal, Rock



Register


Go to the top of the page
  Insert nick Quick quote
+Quote Post
 
Start new topic
Replies (1 - 5)
post Nov 25 2020, 15:04:14
Post #2

Девять Литров
*********
Group: Металариец
Posts: 959
Releases: 0
From: Харьков
On Forums: 12 years 8 months
Thanks: 820 time(s)
Ukraine


Вот вроде слушаешь - вроде норм, но скучно ппц. Жанровая каша не дает толком настроиться на одну волну, а оригинальности треков тут нет от слова совсем. Разочарование.


Thanks:
Go to the top of the page
  Insert nick Quick quote
+Quote Post
post Nov 25 2020, 15:35:41
Post #3

Четыре Литра
****
Group: Металариец
Posts: 337
Releases: 2
On Forums: 2 years 6 months
Thanks: 252 time(s)
Russian Federation


Какой-то мусор, если честно. Материал в принципе ни о чём, буквально. Начинаешь смотреть по сторонам, а там ещё и звук какой-то типичный, пустой и безликий.
Go to the top of the page
  Insert nick Quick quote
+Quote Post
post Nov 25 2020, 15:41:02
Post #4

Чёткий пацан из Автово...
Group Icon
Group: V.I.P
Posts: 9,183
Releases: 36
From: Город над вольной Невой...
On Forums: 14 years 5 months
Thanks: 4595 time(s)
Russian Federation


Какой-то русский рок (IMG:style_emoticons/default/smile1.gif)
Я согласен, что, к сожалению, за мнимой красотой звучания не видно концепта. Совсем (IMG:style_emoticons/default/smile2.gif) Это и не дум-дэт, и не дум, и не дэт, и не рок, и не, и не... - а какая-то сборная солянка всего. Музыканты вполне управляются с инструментами, однако, для действительно хорошей музыки этого мало. Жаль, кстати. Обложка интересная, как по мне.

ЦИТАТА(Slam91 @ 25th November 2020 - 17:35:41) *
звук какой-то типичный, пустой и безликий.

Вот именно так. Звук пустой совсем (IMG:style_emoticons/default/smile2.gif)
Go to the top of the page
  Insert nick Quick quote
+Quote Post
post Nov 25 2020, 15:58:22
Post #5

Правь статус, ####!111
**************
Group: Металариец
Posts: 47,711
Releases: 757
On Forums: 11 years 5 months
Thanks: 41078 time(s)
Russian Federation


(IMG:https://a.radikal.ru/a10/2011/56/817cef3731a4.jpg)
Go to the top of the page
  Insert nick Quick quote
+Quote Post
post Nov 25 2020, 16:58:16
Post #6

Group: Подсевший
Posts: 38
Releases: 0
On Forums: 3 weeks 6 hours
Thanks: 21 time(s)
Somalia


vosmidesijatye, ты смеешься а чувака и правда Ленар по ходу зовут.
Go to the top of the page
  Insert nick Quick quote
+Quote Post

Reply to this topicStart new topic
1 User(s) are reading this topic (1 Guests and 0 Anonymous Users)
0 Members:

 



- Lo-Fi Version Support form
Copyrights and abuse reports form
Time is now: 29th November 2020 - 00:14:59