Welcome Guest ( Log In | Register )

> Releases Upload / Добавление релизов

Добавить релиз тут / Click here to add release
Рекомендованные обменники / Recommended file shares

 
Reply to this topicStart new topic
> Apocalyptic Society - The Silent Extinction [ep] (2020), Death Metal
post Nov 20 2020, 19:11:14
Post #1

Правь статус, ####!111
**************
Group: Металариец
Posts: 3,346
Releases: 3023
From: Одесса
On Forums: 12 years 5 months
Thanks: 30772 time(s)
Ukraine


(IMG:http://metalarea.org/images/audiocovers/2020_Nov/acov_tid344187_thumb.jpg)

*Artist: Apocalyptic Society
*Album: The Silent Extinction [ep]
*Year: 2020
*Genre: Death Metal
*Country: United States (IMG:http://metalarea.org/forum/style_images/flags/United%20States.png)
*Format: mp3@CBR320kbps
*Size: 32MB

Tracklist:
1. Distorted 02:09
2. Quiet Room 05:54
3. The Silent Extinction 05:18
******************************
Total playing time: 13:21



Extended info
Line - up:

Ryan Lacerenza - Bass
Dan Hoffman - Guitars (rhythm)
Michael Beers - Vocals
Bailey Usilton - Guitars
Zach Kuhn - Guitars

(IMG:https://www.metal-archives.com/images/3/5/4/0/3540435842_photo.jpg?3351)


Technical info
(IMG:http://metalarea.org/images/spectrogram/2020_Nov/7cb2f6eb99b4dd16c8de051cf8dd4e84.png)
Input File: 02. Quiet Room.mp3
Channels : 2
Sample Rate : 44100
Precision : 16-bit
Duration : 00:05:54.95 = 15653207 samples = 26621.1 CDDA sectors
File Size : 14.2M
Bit Rate : 320k
Sample Encoding: MPEG audio (layer I, II or III)
Comments :
Title=Quiet Room
Artist=Apocalyptic Society
Album=The Silent Extinction (EP)
Tracknumber=2
Year=2020
Genre=Death Metal



Register


Go to the top of the page
  Insert nick Quick quote
+Quote Post

Reply to this topicStart new topic
2 User(s) are reading this topic (2 Guests and 0 Anonymous Users)
0 Members:

 



- Lo-Fi Version Support form
Copyrights and abuse reports form
Time is now: 29th November 2020 - 21:14:25