Welcome Guest ( Log In | Register )

> Releases Upload / Добавление релизов

Добавить релиз тут / Click here to add release
Рекомендованные обменники / Recommended file shares

 
Reply to this topicStart new topic
> Trial By Combat - Consumed By The Darkness (2020), Death/Thrash Metal
post Nov 20 2020, 19:11:46
Post #1

Правь статус, ####!111
**************
Group: Металариец
Posts: 24,002
Releases: 16880
From: Г.Харьков
On Forums: 8 years 6 months
Thanks: 321737 time(s)
Unknown


(IMG:http://metalarea.org/images/audiocovers/2020_Nov/acov_tid344188_thumb.jpg)

*Artist: Trial By Combat
*Album: Consumed By The Darkness
*Year: 2020
*Genre: Death/Thrash Metal
*Country: United States (IMG:http://metalarea.org/forum/style_images/flags/United%20States.png)
*Format: mp3@CBR320kbps
*Size: 81MB

Tracklist:
1. Trial by Combat 03:44
2. Drumbeat of our Demise 03:00
3. God Delusion 02:58
4. Exsanguination Excite 04:38
5. Consumed by the Darkness 02:45
6. I Am Heathen 03:36
7. The Final Storm 02:49
8. Shapeshifter 04:02
9. Blood in the Sands 03:43
10. Sword of Glory (Motörhead cover) 03:46
******************************
Total playing time: 35:01





Extended info
Nathan Garlick Drums
Aaron Dudley Guitars
Jesse Palmer Guitars (lead)
See also: ex-USSR
Jesse Grossman Bass, Vocals (backing) (2008-present)
Dashiel McKenzie Vocals (lead) (2011-present)
See also: ex-Vindicate


Technical info
(IMG:http://metalarea.org/images/spectrogram/2020_Nov/3c2656859a1a0bb88f14d6626a153ac8.png)
Input File: 08 - Shapeshifter.mp3
Channels : 2
Sample Rate : 44100
Precision : 16-bit
Duration : 00:04:01.88 = 10666952 samples = 18141.1 CDDA sectors
File Size : 9.83M
Bit Rate : 325k
Sample Encoding: MPEG audio (layer I, II or III)
Comments :
Title=Shapeshifter
Artist=Trial by Combat
Album=Consumed by the Darkness
Tracknumber=8
Year=2020



Register


Go to the top of the page
  Insert nick Quick quote
+Quote Post

Reply to this topicStart new topic
2 User(s) are reading this topic (2 Guests and 0 Anonymous Users)
0 Members:

 



- Lo-Fi Version Support form
Copyrights and abuse reports form
Time is now: 1st December 2020 - 18:45:25