Welcome Guest ( Log In | Register )

> Releases Upload / Добавление релизов

Добавить релиз тут / Click here to add release
Рекомендованные обменники / Recommended file shares

> Taur-Im-Duinath - The Burning Bridges (2020), Atmospheric Black Metal
post Nov 20 2020, 19:28:37
Post #1

Правь статус, ####!111
**************
Group: Металариец
Posts: 24,005
Releases: 16880
From: Г.Харьков
On Forums: 8 years 6 months
Thanks: 321747 time(s)
Unknown


(IMG:http://metalarea.org/images/audiocovers/2020_Nov/acov_tid344189_thumb.jpg)

*Artist: Taur-Im-Duinath
*Album: The Burning Bridges
*Year: 2020
*Genre: Atmospheric Black Metal
*Country: Italy (IMG:http://metalarea.org/forum/style_images/flags/Italy.png)
*Format: mp3@CBR320kbps
*Size: 115MB

Tracklist:
1. L'Incedere Del Vuoto 01:50
2. Scrutare l'Abisso 05:45
3. Fuochi Estinti 08:14
4. La Chiusura Del Cerchio 08:49
5. To Wander 01:55
6. Clearing Path 04:57
7. Night Hymn 03:41
8. Hyades 04:11
9. Erinnerung 04:17
10. Aequor Animi 04:33
11. Ashes 01:36
******************************
Total playing time: 49:48




Extended info
F. Everything (2016-present)
See also: Scuorn (live), ex-Párodos, ex-One Day in Fukushima, ex-Throes of Perdition, ex-Crimson Delirium


Technical info
(IMG:http://metalarea.org/images/spectrogram/2020_Nov/cba0d2c89899ad1f337d22e89cbd56a7.png)
Input File: 08 - Hyades.mp3
Channels : 2
Sample Rate : 44100
Precision : 16-bit
Duration : 00:04:11.39 = 11086299 samples = 18854.2 CDDA sectors
File Size : 10.2M
Bit Rate : 323k
Sample Encoding: MPEG audio (layer I, II or III)
Comments :
Title=Hyades
Artist=Taur-Im-Duinath
Album=The Burning Bridges
Tracknumber=8
Year=2020



Register


Go to the top of the page
  Insert nick Quick quote
+Quote Post
 
Start new topic
Replies (1 - 1)
post Nov 21 2020, 04:31:34
Post #2

Group: Подсевший
Posts: 30
Releases: 0
On Forums: 2 years 8 months
Thanks: 29 time(s)
Unknown


2nd Bandcamp link
Go to the top of the page
  Insert nick Quick quote
+Quote Post

Reply to this topicStart new topic
2 User(s) are reading this topic (2 Guests and 0 Anonymous Users)
0 Members:

 



- Lo-Fi Version Support form
Copyrights and abuse reports form
Time is now: 1st December 2020 - 19:53:33