Welcome Guest ( Log In | Register )

> Releases Upload / Добавление релизов

Добавить релиз тут / Click here to add release
Рекомендованные обменники / Recommended file shares

> Command The Machyne - Command The Machyne (2020), Heavy Metal
post Nov 20 2020, 19:45:31
Post #1

Правь статус, ####!111
**************
Group: Металариец
Posts: 23,992
Releases: 16861
From: Г.Харьков
On Forums: 8 years 6 months
Thanks: 321280 time(s)
Unknown


(IMG:http://metalarea.org/images/audiocovers/2020_Nov/acov_tid344190_thumb.jpg)

*Artist: Command The Machyne
*Album: Command The Machyne
*Year: 2020
*Genre: Heavy Metal
*Country: International (IMG:http://metalarea.org/forum/style_images/flags/International.png)
*Format: mp3@CBR320kbps
*Size: 97MB

Tracklist:
1. Burn 'em 03:46
2. Sarah's Heart 03:43
3. Emerge 03:11
4. Drenched in Pain 03:52
5. Prisoners of Time 03:36
6. Stones 03:51
7. Reaper 03:40
8. Kingdoms Prayer 05:13
9. River of Life 03:31
10. The King 03:03
11. Shadows 03:57
******************************
Total playing time: 41:23



Extended info
Germany / USA
Vince Icopro Bass, Drums
Reaper Ulrich Guitars
See also: Highway Killer, ex-Saintsbleed
Sasch Machyne Guitars (2017-present)
See also: Highway Killer, Saintsbleed, ex-Steel Shock, ex-Stormwitch, ex-Eternal Darkness
Florian Reimann Vocals (2017-present)
See also: Goblins Blade, Destillery, ex-Cryptic Vision


Technical info
(IMG:http://metalarea.org/images/spectrogram/2020_Nov/20e28383b46ae9ce66c21032d6db4a4c.png)
Input File: 08 Kingdoms Prayer.mp3
Channels : 2
Sample Rate : 44100
Precision : 16-bit
Duration : 00:05:13.80 = 13838580 samples = 23535 CDDA sectors
File Size : 13.0M
Bit Rate : 331k
Sample Encoding: MPEG audio (layer I, II or III)
Comments :
Title=Kingdoms Prayer
Artist=Command the Machyne
Album=Command the Machyne
Tracknumber=8
Year=2020



Register


Go to the top of the page
  Insert nick Quick quote
+Quote Post
 
Start new topic
Replies (1 - 2)
post Nov 21 2020, 15:17:04
Post #2

MDM-Thrash Metal
**************
Group: Металариец
Posts: 10,002
Releases: 1103
From: Одесса
On Forums: 13 years 3 months
Thanks: 27314 time(s)
Ukraine


Go to the top of the page
  Insert nick Quick quote
+Quote Post
post Nov 22 2020, 12:17:33
Post #3

Это просто место… где все подошло к концу.
**************
Group: Металариец
Posts: 6,060
Releases: 0
From: Страны Мамонтов
On Forums: 13 years 9 months
Thanks: 2353 time(s)
Antarctica


Очень хорошо.
Go to the top of the page
  Insert nick Quick quote
+Quote Post

Reply to this topicStart new topic
2 User(s) are reading this topic (2 Guests and 0 Anonymous Users)
0 Members:

 



- Lo-Fi Version Support form
Copyrights and abuse reports form
Time is now: 29th November 2020 - 20:04:57