Welcome Guest ( Log In | Register )

> Releases Upload / Добавление релизов

Добавить релиз тут / Click here to add release
Рекомендованные обменники / Recommended file shares

> Cristiano Filippini's Flames Of Heaven - The Force Within (2020), Symphonic Power Metal
post Nov 20 2020, 19:52:58
Post #1

Правь статус, ####!111
**************
Group: Металариец
Posts: 3,346
Releases: 3023
From: Одесса
On Forums: 12 years 5 months
Thanks: 30771 time(s)
Ukraine


(IMG:http://metalarea.org/images/audiocovers/2020_Nov/acov_tid344191_thumb.jpg)

*Artist: Cristiano Filippini's Flames Of Heaven
*Album: The Force Within
*Year: 2020
*Genre: Symphonic Power Metal
*Country: Italy (IMG:http://metalarea.org/forum/style_images/flags/Italy.png)
*Format: mp3@CBR320kbps
*Size: 148MB

Tracklist:
1. The Force Within 01:43
2. We Fight for Eternity 06:49
3. Far Away 05:43
4. Against the Hellfire 06:08
5. Always with You 05:35
6. Dying for Love 05:28
7. Finding Yourself 05:28
8. Lightning in the Night 05:40
9. Missing You 06:04
10. Moonlight Phantom 05:03
11. The Angel and the Faith 06:49
12. Ab Angelis Defensa 02:13
******************************
Total playing time: 1:02:43



Extended info
Line - up:

Giorgio "JT" Terenziani - Bass (Absynth Aura, Arthemis, ex-Killing Touch, ex-Silver Lady, Angels&Demons, Mr.Pig, Ship of Theseus)
Paolo Caridi - Drums (Ellefson, Hollow Haze, Sweet Oblivion, ex-Killing Touch, Cosmic Dead Ringers, The Bad Guy Experiment, ex-Arthemis)
Cristiano Filippini - Guitars
Michele "Dr.Viossy" Vioni - Guitars (Absynth Aura, ex-Killing Touch, ex-Silver Lady, Mr. Pig, Edu Falaschi (live))
Marco Pastorino - Vocals (Even Flow, Light & Shade, Temperance, The Ritual, Virtual Symmetry, ex-Bejelit, HateTyler, ex-Light Emitter Death, ex-Secret Sphere, ex-Shining Fury, ex-Timesword)

(IMG:https://www.metal-archives.com/images/3/5/4/0/3540476683_photo.jpg?3127)


Technical info
(IMG:http://metalarea.org/images/spectrogram/2020_Nov/dbc3ee4b9566da7f3615d036259a2d02.png)
Input File: 08. Lightning in the Night.mp3
Channels : 2
Sample Rate : 44100
Precision : 16-bit
Duration : 00:05:40.42 = 15012654 samples = 25531.7 CDDA sectors
File Size : 13.7M
Bit Rate : 322k
Sample Encoding: MPEG audio (layer I, II or III)
Comments :
Title=Lightning in the Night
Artist=Cristiano Filippini's Flames Of Heaven
Album=The Force Within
Tracknumber=8
Year=2020
Genre=Symphonic Power Metal



Register


Go to the top of the page
  Insert nick Quick quote
+Quote Post
 
Start new topic
Replies (1 - 1)
post Nov 22 2020, 19:46:13
Post #2

No More Tears
**************
Group: Металариец
Posts: 4,989
Releases: 114
From: Тбилиси, Грузия
On Forums: 14 years 4 months
Thanks: 2399 time(s)
Georgia


Посмотрим что за современный симфопауэр сейчас, в 2020 году куют. Надежд и ожидании на что-то годное у меня нет.

Ожидал почти что дна но нет, неплохо для этих трудных времен и кризиса в метасл музыке.
Go to the top of the page
  Insert nick Quick quote
+Quote Post

Reply to this topicStart new topic
2 User(s) are reading this topic (2 Guests and 0 Anonymous Users)
0 Members:

 



- Lo-Fi Version Support form
Copyrights and abuse reports form
Time is now: 29th November 2020 - 21:00:16