Welcome Guest ( Log In | Register )

> Releases Upload / Добавление релизов

Добавить релиз тут / Click here to add release
Рекомендованные обменники / Recommended file shares

> Oligarquia - Monopoly Of Violence (2020), Old School Death Metal (D6)
post Nov 20 2020, 20:09:44
Post #1

Правь статус, ####!111
**************
Group: Металариец
Posts: 23,980
Releases: 16852
From: Г.Харьков
On Forums: 8 years 6 months
Thanks: 321102 time(s)
Unknown


(IMG:http://metalarea.org/images/audiocovers/2020_Nov/acov_tid344192_thumb.jpg)

*Artist: Oligarquia
*Album: Monopoly Of Violence
*Year: 2020
*Genre: Old School Death Metal
*Country: Brazil (IMG:http://metalarea.org/forum/style_images/flags/Brazil.png)
*Format: mp3@CBR320kbps
*Size: 85MB

Tracklist:
1. Cocaine 03:35
2. Holders of Lies 02:14
3. Facist Heart (Fascist Empire) 02:37
4. Summer Rain 03:41
5. Imminent Revolution 03:26
6. Left Behind 03:18
7. Ideological Jail 02:02
8. Look to Me 03:01
9. Holy War 01:29
10. We Must Die 04:30
11. Nada É Como Parece (Cover) 02:51
******************************
Total playing time: 32:44



Extended info
альбом анонсировали в 2017 году,но выпустили в этом
Panda Reis Drums (1992-present)
See also: Armagedom, Quilombo, ex-Brigada do Ódio, ex-Heresia 666, ex-Total Joge
Guilherme Sorbello Lopes Guitars, Vocals (backing) (2002-present)
See also: Profundezas, ex-Despojos, Catölishit, ex-DeathSlaüghter (live), ex-Evokers
Victor "Pancho" Munhoz Guitars, Vocals (2009-present)
Allan Bass (2016-present)
See also: Quilombo


Technical info
(IMG:http://metalarea.org/images/spectrogram/2020_Nov/ddd1c19958d2b2231c76bafba6f30d47.png)
Input File: 04 Summer Rain.mp3
Channels : 2
Sample Rate : 44100
Precision : 16-bit
Duration : 00:03:41.92 = 9786760 samples = 16644.1 CDDA sectors
File Size : 9.78M
Bit Rate : 353k
Sample Encoding: MPEG audio (layer I, II or III)
Comments :
Title=Summer Rain
Artist=Oligarquia
Album=Monopoly of Violence
Tracknumber=4/11
Year=2020-20-20
Genre=Metal
Discnumber=1/1



Register


Go to the top of the page
  Insert nick Quick quote
+Quote Post
 
Start new topic
Replies (1 - 2)
post Nov 21 2020, 07:57:50
Post #2

hearer & reader
**************
Group: Металариец
Posts: 9,219
Releases: 163
From: Moscow
On Forums: 13 years 2 months
Thanks: 9848 time(s)
Russian Federation


https://music.yandex.ru/album/12856952
неплохо, неплохо..
Go to the top of the page
  Insert nick Quick quote
+Quote Post
post Nov 21 2020, 09:31:25
Post #3

Семь Литров
*******
Group: Металариец
Posts: 778
Releases: 1
From: APATIN, SERBIA, АПАТИН, СЕРБИЯ
On Forums: 13 years 1 month
Thanks: 1480 time(s)



Flac

Register


Thanks:
Go to the top of the page
  Insert nick Quick quote
+Quote Post

Reply to this topicStart new topic
1 User(s) are reading this topic (1 Guests and 0 Anonymous Users)
0 Members:

 



- Lo-Fi Version Support form
Copyrights and abuse reports form
Time is now: 29th November 2020 - 00:12:05