Welcome Guest ( Log In | Register )

> Releases Upload / Добавление релизов

Добавить релиз тут / Click here to add release
Рекомендованные обменники / Recommended file shares

 
Reply to this topicStart new topic
> El Rojo - El Diablo Rojo (2020), Stoner Metal
post Nov 20 2020, 20:32:06
Post #1

Правь статус, ####!111
**************
Group: Металариец
Posts: 47,707
Releases: 757
On Forums: 11 years 5 months
Thanks: 41078 time(s)
Russian Federation


(IMG:http://metalarea.org/images/audiocovers/2020_Nov/acov_tid344193_thumb.jpg)

*Artist: El Rojo
*Album: El Diablo Rojo
*Year: 2020
*Genre: Stoner Metal
*Country: Italy (IMG:http://metalarea.org/forum/style_images/flags/Italy.png)
*Format: mp3@CBR320kbps
*Size: 97MB

Tracklist:
1. South 04:29
2. El Camino 05:01
3. The Wanderer 04:30
4. Colors 07:13
5. Ascension 06:14
6. When I Slow Down 04:17
7. Cactus Bloom 06:27
8. Dragonfly 03:19
******************************
Total playing time: 41:30



Technical info
(IMG:http://metalarea.org/images/spectrogram/2020_Nov/b3aac7416afd14c44cefab075f1768a0.png)
Input File: 01. South.mp3
Channels : 2
Sample Rate : 44100
Precision : 16-bit
Duration : 00:04:29.55 = 11887111 samples = 20216.2 CDDA sectors
File Size : 11.1M
Bit Rate : 329k
Sample Encoding: MPEG audio (layer I, II or III)
Comments :
Title=South
Artist=El Rojo
Album=El Diablo Rojo
Tracknumber=1/8
Year=2020
Genre=Metal
Discnumber=1/1



Register


Go to the top of the page
  Insert nick Quick quote
+Quote Post

Reply to this topicStart new topic
1 User(s) are reading this topic (1 Guests and 0 Anonymous Users)
0 Members:

 



- Lo-Fi Version Support form
Copyrights and abuse reports form
Time is now: 28th November 2020 - 23:16:55