Welcome Guest ( Log In | Register )

> Releases Upload / Добавление релизов

Добавить релиз тут / Click here to add release
Рекомендованные обменники / Recommended file shares

> Svartalfar - Von Niedergang Und Neubeginn [ep] (2020), Black Metal (D4)
post Nov 21 2020, 00:57:40
Post #1

Malum dominus omnium
**
Group: Завсегдатай
Posts: 112
Releases: 59
On Forums: 9 months 1 week
Thanks: 1075 time(s)
Vatican City


(IMG:https://metalarea.org/images/audiocovers/2020_Nov/acov_tid344194_thumb.jpg)

*Artist: Svartalfar
*Album: Von Niedergang Und Neubeginn [ep]
*Year: 2020
*Genre: Black Metal
*Country: Austria (IMG:https://metalarea.org/forum/style_images/flags/Austria.png)
*Format: mp3@CBR320kbps
*Size: 54MB

Tracklist:
1. In Schatten Gtränkt 01:27
2. Flammenhauch 04:15
3. Durch Trümmer toter Träume 04:50
4. Schwingen der Finsternis 05:23
5. Aus Asche Gwoben 07:32
******************************
Total playing time: 23:27

(IMG:https://metalarea.org/images/youtube.png)


Technical info
(IMG:https://metalarea.org/images/spectrogram/2020_Nov/afca3c6eb5a0f1ab90a56b92bcb2a818.png)
Input File: 05 Svartalfar - Aus Asche Gwoben.mp3
Channels : 2
Sample Rate : 48000
Precision : 16-bit
Duration : 00:07:32.26 = 21708720 samples ~ 33919.9 CDDA sectors
File Size : 18.1M
Bit Rate : 320k
Sample Encoding: MPEG audio (layer I, II or III)
Comments :
Title=Aus Asche Gwoben
Album=Von Niedergang und Neubeginn
Tracknumber=5
Year=2020
Genre=Black Metal



Register


Go to the top of the page
  Insert nick Quick quote
+Quote Post
 
Start new topic
Replies (1 - 1)
post Nov 21 2020, 06:48:30
Post #2

Group: Подсевший
Posts: 23
Releases: 0
On Forums: 1 year 6 months
Thanks: 1 time(s)
Israel


Очень хорошо!
Go to the top of the page
  Insert nick Quick quote
+Quote Post

Reply to this topicStart new topic
2 User(s) are reading this topic (2 Guests and 0 Anonymous Users)
0 Members:

 



- Lo-Fi Version Support form
Copyrights and abuse reports form
Time is now: 1st December 2020 - 18:42:57