Welcome Guest ( Log In | Register )

> Releases Upload / Добавление релизов

Добавить релиз тут / Click here to add release
Рекомендованные обменники / Recommended file shares

> Symphony Of Death - ...It's Time... [demo] (1994), Doom/Death Metal
post Nov 21 2020, 02:11:43
Post #1

Подвал
**************
Group: Металариец
Posts: 15,428
Releases: 8791
From: Far East (Khabarovsk)
On Forums: 11 years 10 months
Thanks: 93955 time(s)
Russian Federation


(IMG:http://metalarea.org/images/audiocovers/2020_Nov/acov_tid344195_thumb.jpg)

*Artist: Symphony Of Death
*Album: ...It's Time... [demo]
*Year: 1994
*Genre: Doom/Death Metal
*Country: Poland (IMG:http://metalarea.org/forum/style_images/flags/Poland.png)
*Format: mp3@CBR320kbps
*Size: 125MB

Tracklist:
1. Prologue 01:34
2. Symphony Of Death 06:01
3. Twilight Of Life 05:08
4. You're Dying 06:25
5. It's Time To Go Away 08:53
6. Minas Morgul 06:34
7. Winter In Heart 05:46
8. Call From A Cross 00:42
9. Power Of Your Mind 06:11
10. Angels Of Grief 07:44
******************************
Total playing time: 54:58

(IMG:http://metalarea.org/images/youtube.png)
(IMG:http://metalarea.org/images/youtube.png)

Technical info
(IMG:http://metalarea.org/images/spectrogram/2020_Nov/077e956b9584813e6e8f6a8f258eed1d.png)
Input File: 02-Symphony Of Death.mp3
Channels : 2
Sample Rate : 44100
Precision : 16-bit
Duration : 00:06:01.79 = 15955071 samples = 27134.5 CDDA sectors
File Size : 14.6M
Bit Rate : 323k
Sample Encoding: MPEG audio (layer I, II or III)
Comments :
Title=Symphony Of Death
Artist=Symphony Of Death
Album=...It's Time...
Tracknumber=02
Year=1994
Genre=Death/Doom Metal



Register


Go to the top of the page
  Insert nick Quick quote
+Quote Post
 
Start new topic
Replies (1 - 1)
post Nov 21 2020, 16:24:51
Post #2

Три Литра
***
Group: Завсегдатай
Posts: 201
Releases: 0
On Forums: 2 years 9 months
Thanks: 81 time(s)
Belarus


Выглядит как антиквариат, и звучит точно так же.
Go to the top of the page
  Insert nick Quick quote
+Quote Post

Reply to this topicStart new topic
1 User(s) are reading this topic (1 Guests and 0 Anonymous Users)
0 Members:

 



- Lo-Fi Version Support form
Copyrights and abuse reports form
Time is now: 28th November 2020 - 23:29:52