Welcome Guest ( Log In | Register )

 
Reply to this topicStart new topic
> Circle Of Vengeance - Circle Of Vengeance [demo] (1995), Thrash/Groove Metal
post Nov 21 2020, 02:35:57
Post #1

Подвал
**************
Group: Металариец
Posts: 15,428
Releases: 8791
From: Far East (Khabarovsk)
On Forums: 11 years 9 months
Thanks: 93896 time(s)
Russian Federation


(IMG:http://metalarea.org/images/audiocovers/2020_Nov/acov_tid344196_thumb.jpg)

*Artist: Circle Of Vengeance
*Album: Circle Of Vengeance [demo]
*Year: 1995
*Genre: Thrash/Groove Metal
*Country: United States (IMG:http://metalarea.org/forum/style_images/flags/United%20States.png)
*Format: mp3@CBR192kbps
*Size: 9MB

Tracklist:
1. When Pain Comes To Surface 03:30
2. Blacklist 03:25
******************************
Total playing time: 6:55

Extended info
Band from Concord, California.
This demo was included on Skinlab's 2004 "Nerve Damage" compilation. Listed as previously unreleased in the liner notes, but it did get a small independent cassette release in '95. By this point the band was playing groove metal with a little bit of thrash influence still present.


Technical info
(IMG:http://metalarea.org/images/spectrogram/2020_Nov/b9b7e33a5f13158b453970df899b634c.png)
Input File: 01-When Pain Comes To Surface.mp3
Channels : 2
Sample Rate : 44100
Precision : 16-bit
Duration : 00:03:30.82 = 9297118 samples = 15811.4 CDDA sectors
File Size : 5.06M
Bit Rate : 192k
Sample Encoding: MPEG audio (layer I, II or III)
Comments :
Title=When Pain Comes To Surface
Artist=Circle of Vengeance (US, CA)
Album=Circle of Vengeance (Demo)
Tracknumber=01
Year=1995-21-11
Genre=Thrash Metal



Register


Go to the top of the page
  Insert nick Quick quote
+Quote Post

Reply to this topicStart new topic
1 User(s) are reading this topic (1 Guests and 0 Anonymous Users)
0 Members:

 



- Lo-Fi Version Support form
Copyrights and abuse reports form
Time is now: 25th November 2020 - 10:11:02