Welcome Guest ( Log In | Register )

> Releases Upload / Добавление релизов

Добавить релиз тут / Click here to add release
Рекомендованные обменники / Recommended file shares

 
Reply to this topicStart new topic
> Eclipse - Demo II [demo] (1993), Experimental/Raw Black Metal
post Nov 21 2020, 11:07:39
Post #1

𝕻𝕬𝕹𝕬𝕮𝕰𝕬
********
Group: Металариец
Posts: 876
Releases: 515
On Forums: 8 years 6 months
Thanks: 8887 time(s)
Unknown


(IMG:https://metalarea.org/images/audiocovers/2020_Nov/acov_tid344198_thumb.jpg)

*Artist: Eclipse
*Album: Demo II [demo]
*Year: 1993
*Genre: Experimental/Raw Black Metal
*Country: Netherlands (IMG:https://metalarea.org/forum/style_images/flags/Netherlands.png)
*Format: mp3@CBR320kbps
*Size: 70MB

Tracklist:
1. The Shadow Of Belial 07:58
2. Blasphemy Prayer In The Night 03:40
3. The Black Winds 07:18
4. Fallen Angel 04:08
5. The Final Geat War 07:04
******************************
Total playing time: 30:08



Extended info
Recorded on 4 track tape recorder in 1993, Drachten, The Netherlands.
Recorded with: GEM keyboard, Bass, Guitar. All instruments and vocals by Darkstar.


Technical info
(IMG:https://metalarea.org/images/spectrogram/2020_Nov/01b59845a618fa7a1864e002bcd3f770.png)
Input File: 04 - Fallen Angel.mp3
Channels : 2
Sample Rate : 44100
Precision : 16-bit
Duration : 00:04:08.08 = 10940108 samples = 18605.6 CDDA sectors
File Size : 10.0M
Bit Rate : 323k
Sample Encoding: MPEG audio (layer I, II or III)
Comments :
Title=Fallen Angel
Artist=Eclipse
Album=Demo II
Tracknumber=4
Year=1993
Genre=Experimental/Raw Black Metal



Register


Go to the top of the page
  Insert nick Quick quote
+Quote Post

Reply to this topicStart new topic
2 User(s) are reading this topic (2 Guests and 0 Anonymous Users)
0 Members:

 



- Lo-Fi Version Support form
Copyrights and abuse reports form
Time is now: 1st December 2020 - 19:09:03