Welcome Guest ( Log In | Register )

> Releases Upload / Добавление релизов

Добавить релиз тут / Click here to add release
Рекомендованные обменники / Recommended file shares

 
Reply to this topicStart new topic
> Barbarian - Demo MMXX [demo] (2020), Death Metal
post Nov 21 2020, 12:14:33
Post #1

𝕻𝕬𝕹𝕬𝕮𝕰𝕬
********
Group: Металариец
Posts: 876
Releases: 515
On Forums: 8 years 5 months
Thanks: 8884 time(s)
Unknown


(IMG:https://metalarea.org/images/audiocovers/2020_Nov/acov_tid344199_thumb.jpg)

*Artist: Barbarian
*Album: Demo MMXX [demo]
*Year: 2020
*Genre: Death Metal
*Country: Australia (IMG:https://metalarea.org/forum/style_images/flags/Australia.png)
*Format: mp3@CBR320kbps
*Size: 43MB

Tracklist:
1. Chainsaw Cannibal 02:00
2. Hellseeker 01:23
3. Barbaric Bloodbath 02:23
4. Werewolf Colony 02:29
5. Axe-Wielding Maniac 02:58
6. King Of Rats 02:56
******************************
Total playing time: 14:09



Technical info
(IMG:https://metalarea.org/images/spectrogram/2020_Nov/e9d8fe51545ef80878de95b636f281bf.png)
Input File: 02 - Hellseeker.mp3
Channels : 2
Sample Rate : 44100
Precision : 16-bit
Duration : 00:01:23.89 = 3699417 samples = 6291.53 CDDA sectors
File Size : 3.49M
Bit Rate : 332k
Sample Encoding: MPEG audio (layer I, II or III)
Comments :
Title=Hellseeker
Artist=Barbarian
Album=Demo MMXX
Tracknumber=2
Year=2020
Genre=Grindcore/Death Metal



Register


Go to the top of the page
  Insert nick Quick quote
+Quote Post

Reply to this topicStart new topic
1 User(s) are reading this topic (1 Guests and 0 Anonymous Users)
0 Members:

 



- Lo-Fi Version Support form
Copyrights and abuse reports form
Time is now: 29th November 2020 - 20:50:00