Welcome Guest ( Log In | Register )

> Releases Upload / Добавление релизов

Добавить релиз тут / Click here to add release
Рекомендованные обменники / Recommended file shares

> Betrayel - Offerings (2020), Thrash Metal (D4)
post Nov 21 2020, 12:16:28
Post #1

Правь статус, ####!111
**************
Group: Металариец
Posts: 24,002
Releases: 16880
From: Г.Харьков
On Forums: 8 years 6 months
Thanks: 321737 time(s)
Unknown


(IMG:http://metalarea.org/images/audiocovers/2020_Nov/acov_tid344200_thumb.jpg)

*Artist: Betrayel
*Album: Offerings
*Year: 2020
*Genre: Thrash Metal
*Country: United States (IMG:http://metalarea.org/forum/style_images/flags/United%20States.png)
*Format: mp3@CBR320kbps
*Size: 77MB

Tracklist:
1. Accelerant 04:10
2. Above and Beyond 03:09
3. Venomous 02:40
4. Offerings 02:34
5. My Demise 04:26
6. Meet Your Maker 02:15
7. Resurrected 03:05
8. Face of Pain 03:16
9. The Edge 03:39
10. Helpless Souls 03:37
******************************
Total playing time: 32:51



Extended info
Arlie Patton Drums
James Carter Guitars
James Johnson Guitars
Chris Campise Vocals, Bass


Technical info
(IMG:http://metalarea.org/images/spectrogram/2020_Nov/3d888ef5e795b4b4f33c8bfc0d0ac13c.png)
Input File: 05 - My Demise.mp3
Channels : 2
Sample Rate : 44100
Precision : 16-bit
Duration : 00:04:27.30 = 11787886 samples = 20047.4 CDDA sectors
File Size : 10.9M
Bit Rate : 326k
Sample Encoding: MPEG audio (layer I, II or III)
Comments :
Title=My Demise
Artist=Betrayel
Album=Offerings
Tracknumber=5
Year=2020



Register


Go to the top of the page
  Insert nick Quick quote
+Quote Post
 
Start new topic
Replies (1 - 2)
post Nov 22 2020, 20:23:35
Post #2

Восемь Литров
********
Group: Металариец
Posts: 849
Releases: 176
On Forums: 1 year 10 months
Thanks: 2320 time(s)
Canada


I checked it out on bandcamp - this is groove metal, not much thrash compared to their great demo tapes from the 1980s.
Maybe this is like the singer's other band? https://www.metal-archives.com/artists/Chris_Campise/165645
Go to the top of the page
  Insert nick Quick quote
+Quote Post
post Nov 22 2020, 21:05:08
Post #3

И Ван Дамм По Делам Вашим!
**************
Group: Металариец
Posts: 19,679
Releases: 26
On Forums: 12 years 5 months
Thanks: 11035 time(s)
Honduras




Thanks:
Go to the top of the page
  Insert nick Quick quote
+Quote Post

Reply to this topicStart new topic
1 User(s) are reading this topic (1 Guests and 0 Anonymous Users)
0 Members:

 



- Lo-Fi Version Support form
Copyrights and abuse reports form
Time is now: 1st December 2020 - 18:40:17