Welcome Guest ( Log In | Register )

> Releases Upload / Добавление релизов

Добавить релиз тут / Click here to add release
Рекомендованные обменники / Recommended file shares

 
Reply to this topicStart new topic
> Barbarian - Human Prey [demo] (2020), Death Metal
post Nov 21 2020, 12:17:10
Post #1

𝕻𝕬𝕹𝕬𝕮𝕰𝕬
********
Group: Металариец
Posts: 876
Releases: 515
On Forums: 8 years 5 months
Thanks: 8884 time(s)
Unknown


(IMG:https://metalarea.org/images/audiocovers/2020_Nov/acov_tid344201_thumb.png)

*Artist: Barbarian
*Album: Human Prey [demo]
*Year: 2020
*Genre: Death Metal
*Country: Australia (IMG:https://metalarea.org/forum/style_images/flags/Australia.png)
*Format: mp3@CBR320kbps
*Size: 29MB

Tracklist:
1. The New Blood 02:40
2. From Sewer To Street 01:45
3. Hybrid Killing Machine 01:48
4. Mutant Eurypterus 02:56
******************************
Total playing time: 9:09



Technical info
(IMG:https://metalarea.org/images/spectrogram/2020_Nov/9eaea6b0bfda4614963cbbc6ac3a9582.png)
Input File: 03 - Hybrid Killing Machine.mp3
Channels : 2
Sample Rate : 44100
Precision : 16-bit
Duration : 00:01:48.39 = 4780043 samples = 8129.32 CDDA sectors
File Size : 4.42M
Bit Rate : 326k
Sample Encoding: MPEG audio (layer I, II or III)
Comments :
Title=Hybrid Killing Machine
Artist=Barbarian
Album=Human Prey
Tracknumber=3
Year=2020
Genre=Grindcore/Death Metal



Register


Go to the top of the page
  Insert nick Quick quote
+Quote Post

Reply to this topicStart new topic
1 User(s) are reading this topic (1 Guests and 0 Anonymous Users)
0 Members:

 



- Lo-Fi Version Support form
Copyrights and abuse reports form
Time is now: 29th November 2020 - 21:15:55