Welcome Guest ( Log In | Register )

> Releases Upload / Добавление релизов

Добавить релиз тут / Click here to add release
Рекомендованные обменники / Recommended file shares

> Catastrofear - Centuries Of Death (2020), Death/Thrash Metal
post Nov 21 2020, 12:25:54
Post #1

Правь статус, ####!111
**************
Group: Металариец
Posts: 23,994
Releases: 16861
From: Г.Харьков
On Forums: 8 years 6 months
Thanks: 321288 time(s)
Unknown


(IMG:http://metalarea.org/images/audiocovers/2020_Nov/acov_tid344202_thumb.jpg)

*Artist: Catastrofear
*Album: Centuries Of Death
*Year: 2020
*Genre: Death/Thrash Metal
*Country: Austria (IMG:http://metalarea.org/forum/style_images/flags/Austria.png)
*Format: mp3@CBR320kbps
*Size: 94MB

Tracklist:
1. Fallout 05:16
2. Kampflos 02:52
3. Assimilation Done 04:42
4. Heuchler 04:02
5. Nomad 04:49
6. Funeral Waltz 05:12
7. Euthanasie 03:44
8. Geächtet 03:30
9. Rescue Medication 06:44
******************************
Total playing time: 40:51



Extended info
Zepp Trestl Bass
Wolfgang Mandelik Drums
Ronald Kandl Guitars
Dominique Heine Guitars, Backing Vox
Roy Bastard Vocals


Technical info
(IMG:http://metalarea.org/images/spectrogram/2020_Nov/594046bf2646b96f015d8300bb6fead3.png)
Input File: 05 - Nomad.mp3
Channels : 2
Sample Rate : 44100
Precision : 16-bit
Duration : 00:04:49.40 = 12762540 samples = 21705 CDDA sectors
File Size : 11.7M
Bit Rate : 324k
Sample Encoding: MPEG audio (layer I, II or III)
Comments :
Title=Nomad
Artist=Catastrofear
Album=Centuries of Death
Tracknumber=5
Year=2020



Register


Go to the top of the page
  Insert nick Quick quote
+Quote Post
 
Start new topic
Replies (1 - 2)
post Nov 22 2020, 18:21:35
Post #2

Совки, гулаги, дефициты
***********
Group: Металариец
Posts: 1,711
Releases: 0
From: Беларусь, Минск
On Forums: 13 years 4 months
Thanks: 856 time(s)
Belarus


В целом олдовый death, трэша нет.
Go to the top of the page
  Insert nick Quick quote
+Quote Post
post Nov 24 2020, 09:11:48
Post #3

Семь Литров
*******
Group: Металариец
Posts: 778
Releases: 1
From: APATIN, SERBIA, АПАТИН, СЕРБИЯ
On Forums: 13 years 1 month
Thanks: 1480 time(s)



Flac

Register
Go to the top of the page
  Insert nick Quick quote
+Quote Post

Reply to this topicStart new topic
2 User(s) are reading this topic (2 Guests and 0 Anonymous Users)
0 Members:

 



- Lo-Fi Version Support form
Copyrights and abuse reports form
Time is now: 29th November 2020 - 21:22:25