Welcome Guest ( Log In | Register )

> Releases Upload / Добавление релизов

Добавить релиз тут / Click here to add release
Рекомендованные обменники / Recommended file shares

 
Reply to this topicStart new topic
> Kalyot - The Harmonic Demise (2018), Experimental Black/Death Metal
post Nov 21 2020, 12:34:51
Post #1

Маньяк
**********
Group: Металариец
Posts: 1,257
Releases: 450
From: Саранск
On Forums: 9 years 6 months
Thanks: 3982 time(s)
Russian Federation


(IMG:https://metalarea.org/images/audiocovers/2020_Nov/acov_tid344203_thumb.jpg)

*Artist: Kalyot
*Album: The Harmonic Demise
*Year: 2018
*Genre: Experimental Black/Death Metal
*Country: Poland (IMG:https://metalarea.org/forum/style_images/flags/Poland.png)
*Format: mp3@CBR320kbps
*Size: 95MB

Tracklist:
1. Scripta Obscura 00:47
2. Breed of the Witch of Endor 05:00
3. Ubiquus 04:25
4. Averting Death to Eternity 04:53
5. Those Masters I Hear 03:24
6. The Harmonic Demise 04:05
7. A Surgeon's Legacy 04:30
8. Sidera Funeral 04:41
9. The Gathering Bell 03:51
10. Apocrypha Illuminata 06:11
******************************
Total playing time: 41:47



Technical info
(IMG:https://metalarea.org/images/spectrogram/2020_Nov/64714bf87960634c04272fb91bd7148b.png)
Input File: 06 - The Harmonic Demise.mp3
Channels : 2
Sample Rate : 44100
Precision : 16-bit
Duration : 00:04:06.12 = 10853672 samples = 18458.6 CDDA sectors
File Size : 9.84M
Bit Rate : 320k
Sample Encoding: MPEG audio (layer I, II or III)
Comments :
Title=The Harmonic Demise
Artist=Kalyot
Album=The Harmonic Demise
Tracknumber=6
Year=2018
Genre=Metal



Register


Go to the top of the page
  Insert nick Quick quote
+Quote Post

Reply to this topicStart new topic
1 User(s) are reading this topic (1 Guests and 0 Anonymous Users)
0 Members:

 



- Lo-Fi Version Support form
Copyrights and abuse reports form
Time is now: 29th November 2020 - 21:27:06