Welcome Guest ( Log In | Register )

> Releases Upload / Добавление релизов

Добавить релиз тут / Click here to add release
Рекомендованные обменники / Recommended file shares

> Stormruler - Under The Burning Eclipse (2020), Black Metal
post Nov 21 2020, 12:36:52
Post #1

Правь статус, ####!111
**************
Group: Металариец
Posts: 24,003
Releases: 16880
From: Г.Харьков
On Forums: 8 years 6 months
Thanks: 321740 time(s)
Unknown


(IMG:http://metalarea.org/images/audiocovers/2020_Nov/acov_tid344204_thumb.jpg)

*Artist: Stormruler
*Album: Under The Burning Eclipse
*Year: 2020
*Genre: Black Metal
*Country: United States (IMG:http://metalarea.org/forum/style_images/flags/United%20States.png)
*Format: mp3@CBR320kbps
*Size: 141MB

Tracklist:
1. Shine of Ivory Horns
2. Reign of the Winged Duke
3. The March Onto Golden Lands
4. Age of Steel & Blood
5. Culling of the Blood Moon
6. Blood of the Old Wolf
7. Journey to the Unknown
8. Under the Burning Eclipse
9. Prithee, Chosen
10. Of Hollowed Souls & Distant Flame
11. An Empire of Ash & Dust
12. At the Cliffs of Azure City
13. Illuminating the Ancient Sky
14. Dawn of the Eternal Fire
15. A Message From a Foreign King
16. Mark of the Valkyrie
17. Blood Ritual
18. Fear the Old Blood
19. Fields of Mortal Shame
******************************
Total playing time: 1:00:23




Extended info
Commander - Guitars/Vocals
J. Schobel - Drums/Vocals
Session work:
Derek Engemann - Bass


Technical info
(IMG:http://metalarea.org/images/spectrogram/2020_Nov/e6cdbee1d1d848c3af207805b5c7ebbf.png)
Input File: 06 - Blood of the Old Wolf.mp3
Channels : 2
Sample Rate : 44100
Precision : 16-bit
Duration : 00:05:48.31 = 15360427 samples = 26123.2 CDDA sectors
File Size : 14.1M
Bit Rate : 324k
Sample Encoding: MPEG audio (layer I, II or III)
Comments :
Title=Blood of the Old Wolf
Artist=Stormruler
Album=Under the Burning Eclipse
Tracknumber=6
Year=2020



Register


Go to the top of the page
  Insert nick Quick quote
+Quote Post
 
Start new topic
Replies (1 - 2)
post Nov 23 2020, 17:28:27
Post #2

Правь статус, ####!111
**************
Group: Металариец
Posts: 3,313
Releases: 10
From: Dnipro
On Forums: 12 years 4 months
Thanks: 1200 time(s)
Ukraine


Очень не плохой альбом, единственное что не хватает это хорошей записи, немного жидковато получилось.
Гитарки настроены как у ранних Dissection & Necrophobic
Go to the top of the page
  Insert nick Quick quote
+Quote Post
post Nov 27 2020, 18:25:48
Post #3

Group: Подсевший
Posts: 11
Releases: 0
On Forums: 4 days 1 hour
Thanks: 1 time(s)
United States


Posting strictly for awesome album art.
Go to the top of the page
  Insert nick Quick quote
+Quote Post

Reply to this topicStart new topic
1 User(s) are reading this topic (1 Guests and 0 Anonymous Users)
0 Members:

 



- Lo-Fi Version Support form
Copyrights and abuse reports form
Time is now: 1st December 2020 - 19:00:09