Welcome Guest ( Log In | Register )

> Releases Upload / Добавление релизов

Добавить релиз тут / Click here to add release
Рекомендованные обменники / Recommended file shares

> Legendire - Sunchasers (2020), Power Metal
post Nov 21 2020, 12:56:16
Post #1

Правь статус, ####!111
**************
Group: Металариец
Posts: 24,002
Releases: 16880
From: Г.Харьков
On Forums: 8 years 6 months
Thanks: 321734 time(s)
Unknown


(IMG:http://metalarea.org/images/audiocovers/2020_Nov/acov_tid344205_thumb.jpg)

*Artist: Legendire
*Album: Sunchasers
*Year: 2020
*Genre: Power Metal
*Country: Russian Federation (IMG:http://metalarea.org/forum/style_images/flags/Russian%20Federation.png)
*Format: mp3@CBR320kbps
*Size: 94MB

Tracklist:
1. Dawn of War
2. Sunchasers
3. Ravenheart
4. Meteor Rain
5. Inner Fire
6. Memories
7. Brave New World
8. The Last Song
9. Unite and Decide (Dragonforce Tribute)
******************************
Total playing time: 40:34

(IMG:http://metalarea.org/images/youtube.png)
(IMG:http://metalarea.org/images/youtube.png)


Technical info
(IMG:http://metalarea.org/images/spectrogram/2020_Nov/e0ef2ec4a89bf1fd85a366ba710cf4c4.png)
Input File: 05 - Inner Fire.mp3
Channels : 2
Sample Rate : 44100
Precision : 16-bit
Duration : 00:04:19.44 = 11441128 samples = 19457.7 CDDA sectors
File Size : 10.5M
Bit Rate : 324k
Sample Encoding: MPEG audio (layer I, II or III)
Comments :
Title=Inner Fire
Artist=Legendire
Album=Sunchasers
Tracknumber=5
Year=2020



Register


Go to the top of the page
  Insert nick Quick quote
+Quote Post
 
Start new topic
Replies (1 - 3)
post Nov 22 2020, 06:21:18
Post #2

hearer & reader
**************
Group: Металариец
Posts: 9,231
Releases: 165
From: Moscow
On Forums: 13 years 2 months
Thanks: 9895 time(s)
Russian Federation


https://music.yandex.ru/album/12819173
Неожиданно неплохо..
Go to the top of the page
  Insert nick Quick quote
+Quote Post
post Nov 23 2020, 10:58:42
Post #3

Dark Ambient Shoujo
**********
Group: Металариец
Posts: 1,331
Releases: 2
On Forums: 11 years 11 months
Thanks: 768 time(s)
Russian Federation


Сыграно, очевидно, любителями павера 00-х для соответствующей аудитории. То бишь строго нишевый альбом. Мне зашло.
Go to the top of the page
  Insert nick Quick quote
+Quote Post
post Nov 25 2020, 13:39:01
Post #4

Три Литра
***
Group: Завсегдатай
Posts: 242
Releases: 0
From: Москва
On Forums: 14 years 1 month
Thanks: 59 time(s)
Russian Federation


Инструментал хорош, вокалиста гнать в шею.
Go to the top of the page
  Insert nick Quick quote
+Quote Post

Reply to this topicStart new topic
1 User(s) are reading this topic (1 Guests and 0 Anonymous Users)
0 Members:

 



- Lo-Fi Version Support form
Copyrights and abuse reports form
Time is now: 1st December 2020 - 18:13:15