Welcome Guest ( Log In | Register )

> Releases Upload / Добавление релизов

Добавить релиз тут / Click here to add release
Рекомендованные обменники / Recommended file shares

 
Reply to this topicStart new topic
> Nordic Frost - Ad Inferna (2020), Symphonic Black/Death Metal (D4)
post Nov 21 2020, 13:07:22
Post #1

Правь статус, ####!111
**************
Group: Металариец
Posts: 24,002
Releases: 16880
From: Г.Харьков
On Forums: 8 years 6 months
Thanks: 321735 time(s)
Unknown


(IMG:http://metalarea.org/images/audiocovers/2020_Nov/acov_tid344206_thumb.jpg)

*Artist: Nordic Frost
*Album: Ad Inferna
*Year: 2020
*Genre: Symphonic Black/Death Metal
*Country: United States (IMG:http://metalarea.org/forum/style_images/flags/United%20States.png)
*Format: mp3@CBR320kbps
*Size: 117MB

Tracklist:
1. Apocryphal Revelations (To Shed the Wings ov Enslavement) 01:37
2. Enlightenment in Obsolescence 04:19
3. Novus Golgotha 05:04
4. The Whore ov Babylon 06:38
5. Awaken the Ancients 05:28
6. To Drink from the Skulls ov Deities 06:34
7. As Black Ravens Descend 01:22
8. Was Retribution Not Enough? 04:39
9. Nordic Frost 05:05
10. To Wither and Die, a King 04:38
11. A Crown ov Thorns, a Throne ov Deceit 05:08
******************************
Total playing time: 50:32




Extended info
Kjell Drums
Brjánn Guitars, Keyboards, Vocals
See also: ex-Let This Die, In Lament, ex-Etched in Stone


Technical info
(IMG:http://metalarea.org/images/spectrogram/2020_Nov/eef695882eeb843178e8bccd0c188923.png)
Input File: 06 - To Drink from the Skulls Ov Deities.mp3
Channels : 2
Sample Rate : 44100
Precision : 16-bit
Duration : 00:06:34.08 = 17378840 samples = 29555.9 CDDA sectors
File Size : 15.9M
Bit Rate : 322k
Sample Encoding: MPEG audio (layer I, II or III)
Comments :
Title=To Drink from the Skulls Ov Deities
Artist=Nordic Frost
Album=Ad Inferna
Tracknumber=6
Year=2020



Register


Go to the top of the page
  Insert nick Quick quote
+Quote Post

Reply to this topicStart new topic
2 User(s) are reading this topic (2 Guests and 0 Anonymous Users)
0 Members:

 



- Lo-Fi Version Support form
Copyrights and abuse reports form
Time is now: 1st December 2020 - 18:20:14