Welcome Guest ( Log In | Register )

> Releases Upload / Добавление релизов

Добавить релиз тут / Click here to add release
Рекомендованные обменники / Recommended file shares

 
Reply to this topicStart new topic
> Pandemaniac - A S W D (2020), Heavy Metal
post Nov 21 2020, 13:17:17
Post #1

Правь статус, ####!111
**************
Group: Металариец
Posts: 24,002
Releases: 16880
From: Г.Харьков
On Forums: 8 years 6 months
Thanks: 321735 time(s)
Unknown


(IMG:http://metalarea.org/images/audiocovers/2020_Nov/acov_tid344207_thumb.jpg)

*Artist: Pandemaniac
*Album: A S W D
*Year: 2020
*Genre: Heavy Metal
*Country: United States (IMG:http://metalarea.org/forum/style_images/flags/United%20States.png)
*Format: mp3@CBR320kbps
*Size: 68MB

Tracklist:
1. Drunk Bunker 03:16
2. A Year in Nepal 03:50
3. Acid Rain 04:08
4. Crimson Crown 03:19
5. Vampire Rise 03:34
6. Astral Sex with Demons 04:03
7. Frontside Grind 03:46
8. Apocalypse Now 03:29
******************************
Total playing time: 29:25




Technical info
(IMG:http://metalarea.org/images/spectrogram/2020_Nov/360208de0189be8a80b0437a65c25ccd.png)
Input File: 06 - Astral Sex with Demons.mp3
Channels : 2
Sample Rate : 44100
Precision : 16-bit
Duration : 00:04:03.08 = 10719916 samples = 18231.1 CDDA sectors
File Size : 9.84M
Bit Rate : 324k
Sample Encoding: MPEG audio (layer I, II or III)
Comments :
Title=Astral Sex with Demons
Artist=Pandemaniac
Album=Aswd
Tracknumber=6
Year=2020



Register


Go to the top of the page
  Insert nick Quick quote
+Quote Post

Reply to this topicStart new topic
1 User(s) are reading this topic (1 Guests and 0 Anonymous Users)
0 Members:

 



- Lo-Fi Version Support form
Copyrights and abuse reports form
Time is now: 1st December 2020 - 18:26:26