Welcome Guest ( Log In | Register )

> Releases Upload / Добавление релизов

Добавить релиз тут / Click here to add release
Рекомендованные обменники / Recommended file shares

 
Reply to this topicStart new topic
> Sentiero Dei Principi & Gevaudans Gauntlet - L'ordalia Notturna (Or Recite The Ancient Curse Spinning In Reverse) [split] (2020), Black Metal | Black Metal
post Nov 21 2020, 15:42:57
Post #1

Правь статус, ####!616
**************
Group: Металариец
Posts: 5,414
Releases: 3943
From: 55°35’N 38°08’E
On Forums: 12 years 4 months
Thanks: 73916 time(s)
Unknown


(IMG:https://metalarea.org/images/audiocovers/2020_Nov/acov_tid344208_thumb.jpg)

*Artist: Sentiero Dei Principi & Gevaudans Gauntlet
*Album: L'ordalia Notturna (Or Recite The Ancient Curse Spinning In Reverse) [split]
*Year: 2020
*Genre: Black Metal | Black Metal
*Country: Italy (IMG:https://metalarea.org/forum/style_images/flags/Italy.png) | Italy (IMG:https://metalarea.org/forum/style_images/flags/Italy.png)
*Format: mp3@CBR320kbps
*Size: 26MB

Tracklist:
Sentiero dei Principi:
1.Preghiera Di Una Bambina Al Dio Paimon 05:09
Gevaudans Gauntlet:
2.Fighting Under A Profaned Warrior Armour 05:43
******************************
Total playing time: 10:52




(IMG:https://metalarea.org/images/youtube.png)

Technical info
(IMG:https://metalarea.org/images/spectrogram/2020_Nov/fd5c4f0128d77c91a0300d6eda3f2b5c.png)
Input File: 01 Sentiero dei Principi - Preghiera Di Una Bambina Al Dio Paimon.mp3
Channels : 2
Sample Rate : 44100
Precision : 16-bit
Duration : 00:05:09.82 = 13663062 samples = 23236.5 CDDA sectors
File Size : 12.7M
Bit Rate : 327k
Sample Encoding: MPEG audio (layer I, II or III)
Comments :
Title=Preghiera Di Una Bambina Al Dio Paimon
Artist=Sentiero dei Principi
Album=L’ ORDALIA NOTTURNA or Recite The Ancient Curse Spinning In Reverse
Tracknumber=1
Year=2020
Genre=Black Metal



Register


Go to the top of the page
  Insert nick Quick quote
+Quote Post

Reply to this topicStart new topic
2 User(s) are reading this topic (2 Guests and 0 Anonymous Users)
0 Members:

 



- Lo-Fi Version Support form
Copyrights and abuse reports form
Time is now: 29th November 2020 - 20:14:42