Welcome Guest ( Log In | Register )

> Releases Upload / Добавление релизов

Добавить релиз тут / Click here to add release
Рекомендованные обменники / Recommended file shares

 
Reply to this topicStart new topic
> Sammas' Equinox - Live Reh. 21​.​8​.​2020 [demo] (2020), Black Metal (D4)
post Nov 21 2020, 15:56:18
Post #1

Правь статус, ####!616
**************
Group: Металариец
Posts: 5,414
Releases: 3943
From: 55°35’N 38°08’E
On Forums: 12 years 4 months
Thanks: 73916 time(s)
Unknown


(IMG:https://metalarea.org/images/audiocovers/2020_Nov/acov_tid344210_thumb.jpg)

*Artist: Sammas' Equinox
*Album: Live Reh. 21​.​8​.​2020 [demo]
*Year: 2020
*Genre: Black Metal
*Country: Finland (IMG:https://metalarea.org/forum/style_images/flags/Finland.png)
*Format: mp3@CBR320kbps
*Size: 66MB

Tracklist:
1.Shores of Pohjola 04:44
2.Fávdna's Arrow 04:18
3.Hyperborean Pilgrimage 05:00
4.Glaciers in the Somber Night 03:41
5.Carved in Stone 05:00
6.Mustat Vedet 05:26
******************************
Total playing time: 28:09



Technical info
(IMG:https://metalarea.org/images/spectrogram/2020_Nov/a35b35c70f63b988ac3dc0da8cfed08e.png)
Input File: 01 Shores of Pohjola.mp3
Channels : 2
Sample Rate : 44100
Precision : 16-bit
Duration : 00:04:44.59 = 12550243 samples = 21344 CDDA sectors
File Size : 11.6M
Bit Rate : 325k
Sample Encoding: MPEG audio (layer I, II or III)
Comments :
Title=Shores of Pohjola
Artist=Sammas' Equinox
Album=Live Reh. 21​.​8​.​2020
Tracknumber=1
Year=2020
Genre=Black Metal



Register


Go to the top of the page
  Insert nick Quick quote
+Quote Post

Reply to this topicStart new topic
1 User(s) are reading this topic (1 Guests and 0 Anonymous Users)
0 Members:

 



- Lo-Fi Version Support form
Copyrights and abuse reports form
Time is now: 29th November 2020 - 20:34:21