Welcome Guest ( Log In | Register )

> Releases Upload / Добавление релизов

Добавить релиз тут / Click here to add release
Рекомендованные обменники / Recommended file shares

 
Reply to this topicStart new topic
> Sammas' Equinox & Emanating Void - Temples Of Ice [split] (2020), Black Metal | Black Metal (D4)
post Nov 21 2020, 16:06:00
Post #1

Правь статус, ####!616
**************
Group: Металариец
Posts: 5,416
Releases: 3948
From: 55°35’N 38°08’E
On Forums: 12 years 4 months
Thanks: 74013 time(s)
Unknown


(IMG:https://metalarea.org/images/audiocovers/2020_Nov/acov_tid344211_thumb.jpg)

*Artist: Sammas' Equinox & Emanating Void
*Album: Temples Of Ice [split]
*Year: 2020
*Genre: Black Metal | Black Metal
*Country: Finland (IMG:https://metalarea.org/forum/style_images/flags/Finland.png) | Finland (IMG:https://metalarea.org/forum/style_images/flags/Finland.png)
*Format: mp3@CBR320kbps
*Size: 53MB

Tracklist:
Sammas' Equinox:
1.Glaciers in the Somber Night 06:58
Emanating Void:
2.Crystallized in Superiority 05:58
******************************
Total playing time: 12:56



Extended info
7" vinyl, Signal Rex
+ scans


Technical info
(IMG:https://metalarea.org/images/spectrogram/2020_Nov/d7f8be7f240068a2d10767b4c1ba6157.png)
Input File: 01 Sammas\' Equinox - Glaciers in the Somber Night.mp3
Channels : 2
Sample Rate : 44100
Precision : 16-bit
Duration : 00:06:58.17 = 18441209 samples = 31362.6 CDDA sectors
File Size : 16.9M
Bit Rate : 323k
Sample Encoding: MPEG audio (layer I, II or III)
Comments :
Title=Glaciers in the Somber Night
Artist=SAMMAS' EQUINOX
Album=Temples of Ice
Tracknumber=1
Year=2020
Genre=Black Metal



Register


Go to the top of the page
  Insert nick Quick quote
+Quote Post

Reply to this topicStart new topic
2 User(s) are reading this topic (2 Guests and 0 Anonymous Users)
0 Members:

 



- Lo-Fi Version Support form
Copyrights and abuse reports form
Time is now: 1st December 2020 - 19:04:15