Welcome Guest ( Log In | Register )

> Releases Upload / Добавление релизов

Добавить релиз тут / Click here to add release
Рекомендованные обменники / Recommended file shares

> Коса - Rehearsal 19.06.19 [demo] (2020), Black Metal
post Nov 21 2020, 16:14:41
Post #1

the faceless one
Group Icon
Group: S-moderation team
Posts: 9,368
Releases: 1932
On Forums: 12 years 3 months
Thanks: 116529 time(s)
Russian Federation


(IMG:http://metalarea.org/images/audiocovers/2020_Nov/acov_tid344212_thumb.jpg)

*Artist: Коса
*Album: Rehearsal 19.06.19 [demo]
*Year: 2020
*Genre: Black Metal
*Country: Russian Federation (IMG:http://metalarea.org/forum/style_images/flags/Russian%20Federation.png)
*Format: mp3@CBR320kbps
*Size: 38MB

Tracklist:
1. Spring Is Inevitable 04:39
2. Ugly 03:23
3. The Light Is Not Eternal 04:11
4. Black Goat 03:49
******************************
Total playing time: 16:02



Extended info
Дебютное демо проекта из Уфы. Смерти Коса была взведена в рамках репетиционной сессии вживую на кассету. Для поклонников "клаксонщины".

Вышло ограниченным тиражом в 13 копий.


Technical info
(IMG:http://metalarea.org/images/spectrogram/2020_Nov/bf77e5daf6a5fb288376995e0d47f9d6.png)
Input File: 02 - Ugly.mp3
Channels : 2
Sample Rate : 44100
Precision : 16-bit
Duration : 00:03:23.35 = 8967647 samples = 15251.1 CDDA sectors
File Size : 8.13M
Bit Rate : 320k
Sample Encoding: MPEG audio (layer I, II or III)
Comments :
Title=Ugly
Artist=Kocа
Album=Rehearsal 19.06.19
Tracknumber=02/04
Year=2020
Genre=Black Metal



Register


Go to the top of the page
  Insert nick Quick quote
+Quote Post
 
Start new topic
Replies (1 - 7)
post Nov 21 2020, 18:22:24
Post #2

Два Литра
**
Group: Завсегдатай
Posts: 158
Releases: 0
On Forums: 3 months 10 hours
Thanks: 94 time(s)
Unknown


Послушал и получил своеобразное удовольствие (я большой ценитель демок, промок и прочих рехерсалов)
По факту здесь 100% репетиционка, звук соответсвующий, сыграно в один заход. Все искренне.
Без оценок. Зачёт
Go to the top of the page
  Insert nick Quick quote
+Quote Post
post Nov 21 2020, 19:29:27
Post #3
BAN
Banned till
Dec 22 2020, 18:54:37



И звук, и сама структура напоминает наргаротовкий "Orke", такой же грязный и разнузданно-циничный.
И, конечно же, изваянная в лоу-фай жерновах Песнь Радости и Счастья - Черный Козел, выползшая из скотомогильника...


Go to the top of the page
  Insert nick Quick quote
+Quote Post
post Nov 21 2020, 20:51:12
Post #4

...Only Death Is Real...
**************
Group: Металариец
Posts: 2,903
Releases: 19
On Forums: 10 years 4 months
Thanks: 1898 time(s)
Antarctica


Превью понравилось. Хорошая сырятина. (IMG:style_emoticons/default/9.gif) (IMG:style_emoticons/default/20.gif)
Go to the top of the page
  Insert nick Quick quote
+Quote Post
post Nov 21 2020, 22:34:44
Post #5

Trickster
Group Icon
Group: Moderation team
Posts: 4,389
Releases: 318
On Forums: 9 years 9 months
Thanks: 12876 time(s)
Russian Federation


Чуть меньше недели назад слышал. Неплохой стаффчик, ничего не скажешь
Go to the top of the page
  Insert nick Quick quote
+Quote Post
post Nov 22 2020, 00:32:38
Post #6

Trickster
Group Icon
Group: Moderation team
Posts: 4,389
Releases: 318
On Forums: 9 years 9 months
Thanks: 12876 time(s)
Russian Federation


RUDACHUR, Да охотно верю. Я все хочу написать товарищам с Танцев до небес, ибо они физы уже нескольким интересующим меня проектам печатают. Тут не гонка со временем, просто как факт.


Go to the top of the page
  Insert nick Quick quote
+Quote Post
post Nov 22 2020, 03:45:25
Post #7

Шесть Литров
******
Group: Металариец
Posts: 543
Releases: 0
From: Катин город
On Forums: 11 years 11 months
Thanks: 508 time(s)
Russian Federation


Шлёпёпань какая-то.
Go to the top of the page
  Insert nick Quick quote
+Quote Post
post Nov 22 2020, 09:17:53
Post #8

лйубить прерода и огненый вОда
**************
Group: Металариец
Posts: 4,236
Releases: 0
On Forums: 4 years 9 months
Thanks: 2795 time(s)
Unknown


помню вроде был такой украинский блэковый проект.


Go to the top of the page
  Insert nick Quick quote
+Quote Post

Reply to this topicStart new topic
2 User(s) are reading this topic (2 Guests and 0 Anonymous Users)
0 Members:

 



- Lo-Fi Version Support form
Copyrights and abuse reports form
Time is now: 25th November 2020 - 09:26:44