Welcome Guest ( Log In | Register )

> Releases Upload / Добавление релизов

Добавить релиз тут / Click here to add release
Рекомендованные обменники / Recommended file shares

> Medjay - Sandstorm (2020), Power Metal
post Nov 21 2020, 16:19:51
Post #1

Правь статус, ####!111
**************
Group: Металариец
Posts: 23,994
Releases: 16861
From: Г.Харьков
On Forums: 8 years 6 months
Thanks: 321288 time(s)
Unknown


(IMG:http://metalarea.org/images/audiocovers/2020_Nov/acov_tid344213_thumb.jpg)

*Artist: Medjay
*Album: Sandstorm
*Year: 2020
*Genre: Power Metal
*Country: Brazil (IMG:http://metalarea.org/forum/style_images/flags/Brazil.png)
*Format: mp3@CBR320kbps
*Size: 80MB

Tracklist:
1. Egyptian Beast (feat. Marco Herrera)
2. Medjay
3. Death in the House of Horus (feat. Marco Herrera)
4. Revenge of Horus (feat. Marco Herrera, Marilia Zangrandi)
5. Rise for Glory (feat. Marco Herrera)
6. Sandstorm (feat. Marco Herrera)
7. Lady of The Nile (feat. Marco Herrera, May Undead)
******************************
Total playing time: 34:17



Extended info


Technical info
(IMG:http://metalarea.org/images/spectrogram/2020_Nov/d1914ebcc4dcb01dca876befacdfde91.png)
Input File: 05 - Rise for Glory.mp3
Channels : 2
Sample Rate : 44100
Precision : 16-bit
Duration : 00:04:35.35 = 12142715 samples = 20650.9 CDDA sectors
File Size : 11.2M
Bit Rate : 325k
Sample Encoding: MPEG audio (layer I, II or III)
Comments :
Title=Rise for Glory
Artist=Medjay / Marco Herrera
Album=Sandstorm
Tracknumber=5
Year=2020



Register


Go to the top of the page
  Insert nick Quick quote
+Quote Post
 
Start new topic
Replies (1 - 2)
post Nov 22 2020, 06:43:07
Post #2

hearer & reader
**************
Group: Металариец
Posts: 9,225
Releases: 164
From: Moscow
On Forums: 13 years 2 months
Thanks: 9858 time(s)
Russian Federation


https://music.yandex.ru/album/12825158
Go to the top of the page
  Insert nick Quick quote
+Quote Post
post Nov 22 2020, 12:08:46
Post #3

Это просто место… где все подошло к концу.
**************
Group: Металариец
Posts: 6,060
Releases: 0
From: Страны Мамонтов
On Forums: 13 years 9 months
Thanks: 2353 time(s)
Antarctica


Прощайте эльфы и рыцари, началась эра меджаев (IMG:style_emoticons/default/21.gif)
Go to the top of the page
  Insert nick Quick quote
+Quote Post

Reply to this topicStart new topic
2 User(s) are reading this topic (2 Guests and 0 Anonymous Users)
0 Members:

 



- Lo-Fi Version Support form
Copyrights and abuse reports form
Time is now: 29th November 2020 - 20:53:02