Welcome Guest ( Log In | Register )

> Releases Upload / Добавление релизов

Добавить релиз тут / Click here to add release
Рекомендованные обменники / Recommended file shares

> Constraint - Dead End (2020), Thrash/Death Metal (D4)
post Nov 21 2020, 16:54:48
Post #1

Правь статус, ####!111
**************
Group: Металариец
Posts: 23,993
Releases: 16861
From: Г.Харьков
On Forums: 8 years 6 months
Thanks: 321285 time(s)
Unknown


(IMG:http://metalarea.org/images/audiocovers/2020_Nov/acov_tid344215_thumb.jpg)

*Artist: Constraint
*Album: Dead End
*Year: 2020
*Genre: Thrash/Death Metal
*Country: Switzerland (IMG:http://metalarea.org/forum/style_images/flags/Switzerland.png)
*Format: mp3@CBR320kbps
*Size: 98MB

Tracklist:
1. Road To Nowhere 01:08
2. Lies 04:13
3. Dead End 04:12
4. Your Last Day 04:58
5. Forgotten Paths 04:14
6. In Ships They Come 03:37
7. Time To Escape 04:49
8. Throw The First Stone 03:49
9. Doomed To Die 04:49
10. 2110 03:48
******************************
Total playing time: 39:37



Extended info
Märs Bühler Bass
See also: Pertness
Flörä Ramu Drums
Cyrä Probst Guitars
Ädl Jüsy Guitars
Steff Mani Vocals



Technical info
(IMG:http://metalarea.org/images/spectrogram/2020_Nov/dcd06dfd91228d7b0c6c360c8e854ba5.png)
Input File: 07 Time To Escape.mp3
Channels : 2
Sample Rate : 44100
Precision : 16-bit
Duration : 00:04:49.87 = 12783267 samples = 21740.2 CDDA sectors
File Size : 12.3M
Bit Rate : 339k
Sample Encoding: MPEG audio (layer I, II or III)
Comments :
Title=Time To Escape
Artist=Constraint
Album=Dead End
Tracknumber=7/10
Year=2020-20-20
Genre=Metal
Discnumber=1/1



Register


Go to the top of the page
  Insert nick Quick quote
+Quote Post
 
Start new topic
Replies (1 - 1)
post Nov 22 2020, 14:07:05
Post #2

MDM-Thrash Metal
**************
Group: Металариец
Posts: 10,002
Releases: 1103
From: Одесса
On Forums: 13 years 3 months
Thanks: 27314 time(s)
Ukraine


Очень качественная работа!
Go to the top of the page
  Insert nick Quick quote
+Quote Post

Reply to this topicStart new topic
1 User(s) are reading this topic (1 Guests and 0 Anonymous Users)
0 Members:

 



- Lo-Fi Version Support form
Copyrights and abuse reports form
Time is now: 29th November 2020 - 20:16:08