Welcome Guest ( Log In | Register )

> Releases Upload / Добавление релизов

Добавить релиз тут / Click here to add release
Рекомендованные обменники / Recommended file shares

 
Reply to this topicStart new topic
> Decedent - Kadotus [ep] (2020), Death Metal
post Nov 21 2020, 17:21:19
Post #1

Правь статус, ####!616
**************
Group: Металариец
Posts: 5,416
Releases: 3948
From: 55°35’N 38°08’E
On Forums: 12 years 4 months
Thanks: 74013 time(s)
Unknown


(IMG:https://metalarea.org/images/audiocovers/2020_Nov/acov_tid344216_thumb.jpg)

*Artist: Decedent
*Album: Kadotus [ep]
*Year: 2020
*Genre: Death Metal
*Country: Finland (IMG:https://metalarea.org/forum/style_images/flags/Finland.png)
*Format: mp3@CBR320kbps
*Size: 57MB

Tracklist:
1.Ihmishäkki 04:17
2.Verenkuiskaaja 03:38
3.Pahan Liittomaa 05:22
4.Saasteen Karsija 02:50
5.Uudet Luojat 04:13
6.Vihan Sola 03:59
******************************
Total playing time: 24:19



(IMG:https://metalarea.org/images/youtube.png)

Technical info
(IMG:https://metalarea.org/images/spectrogram/2020_Nov/42693dee756b4bd11758f2ba44f8a0ea.png)
Input File: 01 Ihmishäkki.mp3
Channels : 2
Sample Rate : 44100
Precision : 16-bit
Duration : 00:04:17.47 = 11354427 samples = 19310.3 CDDA sectors
File Size : 10.4M
Bit Rate : 324k
Sample Encoding: MPEG audio (layer I, II or III)
Comments :
Title=Ihmishäkki
Artist=Decedent
Album=Kadotus
Tracknumber=1
Year=2020
Genre=Death Metal



Register


Go to the top of the page
  Insert nick Quick quote
+Quote Post

Reply to this topicStart new topic
2 User(s) are reading this topic (2 Guests and 0 Anonymous Users)
0 Members:

 



- Lo-Fi Version Support form
Copyrights and abuse reports form
Time is now: 1st December 2020 - 18:38:50