Welcome Guest ( Log In | Register )

 
Reply to this topicStart new topic
> Victims Of Reality - Morbid Joys [demo] (1995), Doom/Groove/Heavy Metal
post Nov 21 2020, 17:21:34
Post #1

Восемь Литров
********
Group: Металариец
Posts: 897
Releases: 184
On Forums: 1 year 11 months
Thanks: 2504 time(s)
Canada


(IMG:https://metalarea.org/images/audiocovers/2020_Nov/acov_tid344217_thumb.png)

*Artist: Victims Of Reality
*Album: Morbid Joys [demo]
*Year: 1995
*Genre: Doom/Groove/Heavy Metal
*Country: United States (IMG:https://metalarea.org/forum/style_images/flags/United%20States.png)
*Format: mp3@CBR320kbps
*Size: 53MB

Tracklist:
1. Cold Day in Hell 04:33
2. Maybe I'm Wrong 04:09
3. Morbid Joys 03:37
4. Victims of Reality 04:06
5. Cuppa Joe [bonus track] 00:27
******************************
Total playing time: 16:52

Extended info
Thanks to the original ripper and uploader, Christopher Moon.
cover scan included.

Mr. Moon did "all the artwork manually, as this was before the pc revolution hit it's stride, so it was all cut-n-paste."

Christopher Moon - Guitar, Vocals
Michael McCoy - Bass, Vocals
Richard Nelson - Lead Vocals
Benjamin Trautlein - Drums

http://www.soundclick.com/mrmoon


Technical info
(IMG:https://metalarea.org/images/spectrogram/2020_Nov/16167d2de9cc1a8921002f172cf4c284.png)
Input File: 5.VOR-MorbidJoys-BONUS-CuppaJoe.mp3
Channels : 2
Sample Rate : 44100
Precision : 16-bit
Duration : 00:00:27.43 = 1209795 samples = 2057.47 CDDA sectors
File Size : 3.56M
Bit Rate : 1.04M
Sample Encoding: MPEG audio (layer I, II or III)
Comments :
Title=Cuppa Joe
Artist=Victims of Reality (US-MN)
Album=Morbid Joys [Demo] (1995) and bonus track
Tracknumber=5
Year=1995
Genre=Doom Metal/ Groove Metal / Heavy Metal



Register


This post has been edited by Borderline1991: Nov 22 2020, 06:15:35


Go to the top of the page
  Insert nick Quick quote
+Quote Post

Reply to this topicStart new topic
1 User(s) are reading this topic (1 Guests and 0 Anonymous Users)
0 Members:

 



- Lo-Fi Version Support form
Copyrights and abuse reports form
Time is now: 25th January 2021 - 11:17:56