Welcome Guest ( Log In | Register )

> Releases Upload / Добавление релизов

Добавить релиз тут / Click here to add release
Рекомендованные обменники / Recommended file shares

 
Reply to this topicStart new topic
> Calea Dreaming - We Stood Boundless To The Earth (2020), Instrumental Atmospheric Post-Black Metal
post Nov 21 2020, 17:44:20
Post #1

Правь статус, ####!111
**************
Group: Металариец
Posts: 3,346
Releases: 3023
From: Одесса
On Forums: 12 years 5 months
Thanks: 30773 time(s)
Ukraine


(IMG:http://metalarea.org/images/audiocovers/2020_Nov/acov_tid344218_thumb.jpg)

*Artist: Calea Dreaming
*Album: We Stood Boundless To The Earth
*Year: 2020
*Genre: Instrumental Atmospheric Post-Black Metal
*Country: Australia (IMG:http://metalarea.org/forum/style_images/flags/Australia.png)
*Format: mp3@CBR320kbps
*Size: 144MB

Tracklist:
1. We Stood Boundless to the Earth
2. The Wind Breathes Loneliness
3. Path of the Wanderer
4. Walking in a Grove of Trees
5. Heart of the Forest
6. To Dwell Among the Beauties of Earth
******************************
Total playing time: 1:00:04



Technical info
(IMG:http://metalarea.org/images/spectrogram/2020_Nov/c35b95027f66254675f0e443a76e9c9b.png)
Input File: 03 - Path of the Wanderer.mp3
Channels : 2
Sample Rate : 44100
Precision : 16-bit
Duration : 00:09:54.00 = 26195400 samples = 44550 CDDA sectors
File Size : 23.8M
Bit Rate : 321k
Sample Encoding: MPEG audio (layer I, II or III)
Comments :
Title=Path of the Wanderer
Artist=Calea Dreaming
Album=We Stood Boundless to the Earth
Tracknumber=3
Year=2020-21-11
Genre=Instrumental Atmospheric Post-Black Metal



Register


Go to the top of the page
  Insert nick Quick quote
+Quote Post

Reply to this topicStart new topic
1 User(s) are reading this topic (1 Guests and 0 Anonymous Users)
0 Members:

 



- Lo-Fi Version Support form
Copyrights and abuse reports form
Time is now: 29th November 2020 - 21:20:15