Welcome Guest ( Log In | Register )

> Releases Upload / Добавление релизов

Добавить релиз тут / Click here to add release
Рекомендованные обменники / Recommended file shares

 
Reply to this topicStart new topic
> Margaret Read - Distress [demo] (2020), Depressive Black Metal
post Nov 21 2020, 17:51:52
Post #1

Правь статус, ####!616
**************
Group: Металариец
Posts: 5,416
Releases: 3948
From: 55°35’N 38°08’E
On Forums: 12 years 4 months
Thanks: 74015 time(s)
Unknown


(IMG:https://metalarea.org/images/audiocovers/2020_Nov/acov_tid344219_thumb.jpg)

*Artist: Margaret Read
*Album: Distress [demo]
*Year: 2020
*Genre: Depressive Black Metal
*Country: United Kingdom (IMG:https://metalarea.org/forum/style_images/flags/United%20Kingdom.png)
*Format: mp3@CBR320kbps
*Size: 50MB

Tracklist:
1.With Sorrow 09:49
2.With Fear 02:23
3.With Sadness 09:41
******************************
Total playing time: 21:53



Technical info
(IMG:https://metalarea.org/images/spectrogram/2020_Nov/44a47b8228b4365cb78255004baf0e14.png)
Input File: 01 With Sorrow.mp3
Channels : 2
Sample Rate : 44100
Precision : 16-bit
Duration : 00:09:49.83 = 26011591 samples = 44237.4 CDDA sectors
File Size : 23.7M
Bit Rate : 322k
Sample Encoding: MPEG audio (layer I, II or III)
Comments :
Title=With Sorrow
Artist=Margaret Read
Album=Distress
Tracknumber=1
Year=2020
Genre=Black Metal



Register


Go to the top of the page
  Insert nick Quick quote
+Quote Post

Reply to this topicStart new topic
2 User(s) are reading this topic (2 Guests and 0 Anonymous Users)
0 Members:

 



- Lo-Fi Version Support form
Copyrights and abuse reports form
Time is now: 1st December 2020 - 19:54:36