Welcome Guest ( Log In | Register )

> Releases Upload / Добавление релизов

Добавить релиз тут / Click here to add release
Рекомендованные обменники / Recommended file shares

> Crotalus - The Practice Of Burial [ep] (2020), Death Metal (D4)
post Nov 21 2020, 18:34:06
Post #1

Правь статус, ####!111
**************
Group: Металариец
Posts: 24,004
Releases: 16880
From: Г.Харьков
On Forums: 8 years 6 months
Thanks: 321743 time(s)
Unknown


(IMG:http://metalarea.org/images/audiocovers/2020_Nov/acov_tid344220_thumb.jpg)

*Artist: Crotalus
*Album: The Practice Of Burial [ep]
*Year: 2020
*Genre: Death Metal
*Country: United States (IMG:http://metalarea.org/forum/style_images/flags/United%20States.png)
*Format: mp3@CBR320kbps
*Size: 40MB

Tracklist:
01. Empire of Nothing
02. Human Butcher
03. Of Solace and Grief
04. The Practice of Burial
******************************
Total playing time: 17:11



Technical info
(IMG:http://metalarea.org/images/spectrogram/2020_Nov/1b77a098a6b35f76bb65303c41719060.png)
Input File: 03. Of Solace and Grief.mp3
Channels : 2
Sample Rate : 44100
Precision : 16-bit
Duration : 00:04:18.68 = 11407832 samples = 19401.1 CDDA sectors
File Size : 10.5M
Bit Rate : 323k
Sample Encoding: MPEG audio (layer I, II or III)
Comments :
Title=Of Solace and Grief
Artist=Crotalus
Album=The Practice of Burial
Tracknumber=3
Year=2020
Discnumber=1/1



Register


Go to the top of the page
  Insert nick Quick quote
+Quote Post
 
Start new topic
Replies (1 - 1)
post Nov 24 2020, 09:18:07
Post #2

Семь Литров
*******
Group: Металариец
Posts: 778
Releases: 1
From: APATIN, SERBIA, АПАТИН, СЕРБИЯ
On Forums: 13 years 1 month
Thanks: 1482 time(s)



Flac

Register
Go to the top of the page
  Insert nick Quick quote
+Quote Post

Reply to this topicStart new topic
1 User(s) are reading this topic (1 Guests and 0 Anonymous Users)
0 Members:

 



- Lo-Fi Version Support form
Copyrights and abuse reports form
Time is now: 1st December 2020 - 19:19:05